ML
     
  Уважаемый Гость!
Вы можете поддержать проект и зарегистрироваться у наших партнеров - онлайн-стратегия MyLands. При регистрации в игре Вы получите код, который сможете активировать после регистрации на pirat.ca и получить 1000 дублонов.

Ваш код:
69f316be79867e9bf99caee9682d20bb11964507
 
     

Шпион (Алексей Андрианов) [2012 г., триллер, детектив, приключения, DVDRip] (Лицензия)

Ответить на тему
 
Автор
Сообщение

Пост 04-Май-2012 01:20

[Q] 

zyyx

--Шпион
«Остановить неизбежное»
-- Год выпуска: 2012
Российская премьера: 5 апреля 2012, «Централ Партнершип»
Производство: Россия
Жанр: триллер, детектив, приключения
Продолжительность: 01:44:23
Перевод: Не требуется [Лицензия]
Режиссер: Алексей Андрианов
В ролях: Данила Козловский, Фёдор Бондарчук, Владимир Епифанцев, Сергей Газаров, Виктор Вержбицкий, Виктория Толстоганова, Анна Чиповская, Алексей Горбунов, Алексей Гаврилов, Екатерина Мельник
Описание: Весна 1941 года. В центре Москвы разворачивается напряжённый поединок двух разведок. Цель тайной операции Гитлера — дезинформировать Сталина о планах нападения Германии на Советский Союз.
Старший майор Октябрьский и лейтенант Дорин против гения фашистского шпионажа. Схватка на фоне большой истории, освещенной заревом грядущей войны.
Источник/Качество: DVDRip | Сэмпл
Формат: AVI
Видео кодек: XviD
Аудио кодек: MP3
Видео: 672x272 (2.47:1), 25 fps, XviD build 50, 802 kbps avg, 0.18 bit/pixel
Аудио: 48 kHz, MPEG Layer 3, 2 ch, 128.00 kbps avg
General
Complete name : D:\Новая папка (2)\Shpion.2012.O.DVDRip.700Mb.avi
Format : AVI
Format/Info : Audio Video Interleave
File size : 702 MiB
Duration : 1h 44mn
Overall bit rate : 940 Kbps
Writing application : VirtualDubMod 1.5.10.3 | www.virtualdub-fr.org || (build 2550/release)
Writing library : VirtualDubMod build 2550/release
Video
ID : 0
Format : MPEG-4 Visual
Format profile : Advanced [email protected]
Format settings, BVOP : 1
Format settings, QPel : No
Format settings, GMC : No warppoints
Format settings, Matrix : Custom
Codec ID : XVID
Codec ID/Hint : XviD
Duration : 1h 44mn
Bit rate : 802 Kbps
Width : 672 pixels
Height : 272 pixels
Display aspect ratio : 2.471
Frame rate : 25.000 fps
Color space : YUV
Chroma subsampling : 4:2:0
Bit depth : 8 bits
Scan type : Progressive
Compression mode : Lossy
Bits/(Pixel*Frame) : 0.176
Stream size : 599 MiB (85%)
Writing library : XviD 1.2.1 (UTC 2008-12-04)
Audio
ID : 1
Format : MPEG Audio
Format version : Version 1
Format profile : Layer 3
Codec ID : 55
Codec ID/Hint : MP3
Duration : 1h 44mn
Bit rate mode : Constant
Bit rate : 128 Kbps
Channel(s) : 2 channels
Sampling rate : 48.0 KHz
Compression mode : Lossy
Stream size : 95.6 MiB (14%)
Alignment : Aligned on interleaves
Interleave, duration : 40 ms (1.00 video frame)
Interleave, preload duration : 504 ms
Writing library : LAME3.99
Encoding settings : -m s -V 4 -q 2 -lowpass 17 -b 128


Download / Скачать

Хотите скачать бесплатно? Зарегистрируйтесь на сайте (ссылка на регистрацию). Pirat.ca - самый быстрый торрент трекер в рунете!

Как скачивать  ·   Что такое торрент  ·   Рейтинг и ограничения

Пост 04-Май-2012 07:09 (спустя 5 часов)

Топик был перенесен из форума Наше Кино в форум Новинки (HD|DVD|BD|TV|SAT|PDTV| - Rips)

ara1205
 

MakAVP

Морской Волк

18

Пост 22-Май-2012 13:19 (спустя 18 дней)

[Q] 


_________________

[Профиль]  [ЛС] 

Пост 20-Июн-2012 13:04 (спустя 28 дней)

Топик был перенесен из форума Новинки (HD|DVD|BD|TV|SAT|PDTV| - Rips) в форум Российские фильмы

erchine
 

vik238

Корсар

Пост 19-Янв-2013 12:38 (спустя 7 месяцев 27 дней)

[Q] 

[Профиль]  [ЛС] 

vit-007

Шкипер

Пост 04-Мар-2013 22:32 (спустя 1 месяц 16 дней)

[Q] 

[Профиль]  [ЛС] 
Показать сообщения:    
Ответить на тему

Текущее время: Сегодня 14:34

Часовой пояс: GMT + 4



Вы не можете начинать темы
Вы не можете отвечать на сообщения
Вы не можете редактировать свои сообщения
Вы не можете удалять свои сообщения
Вы не можете голосовать в опросах
Вы не можете прикреплять файлы к сообщениям
Вы не можете скачивать файлы

▼ Вниз