ML
     
  Уважаемый Гость!
Вы можете поддержать проект и зарегистрироваться у наших партнеров - онлайн-стратегия MyLands. При регистрации в игре Вы получите код, который сможете активировать после регистрации на pirat.ca и получить 1000 дублонов.

Ваш код:
1a5b0a965618b2c406d4279ec9924ee6282c60cf
 
     

Дирижёр (Павел Лунгин) [2012 г., драма, HDRip] (Лицензия)

Ответить на тему
 
Автор
Сообщение

Пост 04-Май-2012 02:33

[Q] 

zyyx

--Дирижёр-- Год выпуска: 2012
Российская премьера: 29 марта 2012, «Мастерская Павла Лунгина»
Дата выхода DVD: 25 апреля 2012, «Кармен Видео»
Дата выхода Blu-Ray: 10 мая 2012, «Кармен Видео»
Производство: Россия
Жанр: драма
Продолжительность: 01:30:12
Перевод: Не требуется [Лицензия]
Режиссер: Павел Лунгин
В ролях: Владас Багдонас, Карэн Бадалов, Дарья Мороз, Сергей Колтаков, Инга Стрелкова-Оболдина, Сергей Барковский
Описание: Дирижер отправляется со своим оркестром в Иерусалим, чтобы исполнить ораторию «Страсти по Матфею». Но гастроли оборачиваются трагедией. Черное солнце Иерусалима срывает с главного героя маску благополучного художника, заставляет увидеть себя в беспощадной наготе эгоизма и жестокости. Иногда за 3 дня человек может полностью переоценить и переосмыслить свою жизнь. Меняться никогда не поздно.
Источник/Качество: HDRip | Сэмпл
Формат: AVI
Видео кодек: XviD
Аудио кодек: AC3
Видео: 720x304 (2.37:1), 24 fps, XviD build 50, 1711 kbps avg, 0.33 bit/pixel
Аудио: 48 kHz, AC3 Dolby Digital, 3/2 (L,C,R,l,r) + LFE ch, 448.00 kbps avg
General
Complete name : D:\Новая папка (2)\Dirijer.2012.O.HDRip.avi
Format : AVI
Format/Info : Audio Video Interleave
File size : 1.37 GiB
Duration : 1h 30mn
Overall bit rate : 2 169 Kbps
Writing application : VirtualDubMod 1.5.10.2 (build 2540/release)
Writing library : VirtualDubMod build 2540/release
Video
ID : 0
Format : MPEG-4 Visual
Format profile : Advanced [email protected]
Format settings, BVOP : 2
Format settings, QPel : No
Format settings, GMC : No warppoints
Format settings, Matrix : Custom
Codec ID : XVID
Codec ID/Hint : XviD
Duration : 1h 30mn
Bit rate : 1 712 Kbps
Width : 720 pixels
Height : 304 pixels
Display aspect ratio : 2.35:1
Frame rate : 24.000 fps
Color space : YUV
Chroma subsampling : 4:2:0
Bit depth : 8 bits
Scan type : Progressive
Compression mode : Lossy
Bits/(Pixel*Frame) : 0.326
Stream size : 1.08 GiB (79%)
Writing library : XviD 1.2.1 (UTC 2008-12-04)
Audio
ID : 1
Format : AC-3
Format/Info : Audio Coding 3
Mode extension : CM (complete main)
Codec ID : 2000
Duration : 1h 30mn
Bit rate mode : Constant
Bit rate : 448 Kbps
Channel(s) : 6 channels
Channel positions : Front: L C R, Side: L R, LFE
Sampling rate : 48.0 KHz
Bit depth : 16 bits
Compression mode : Lossy
Stream size : 289 MiB (21%)
Alignment : Split accross interleaves
Interleave, duration : 42 ms (1.00 video frame)
Interleave, preload duration : 500 ms


Download / Скачать

Хотите скачать бесплатно? Зарегистрируйтесь на сайте (ссылка на регистрацию). Pirat.ca - самый быстрый торрент трекер в рунете!

Как скачивать  ·   Что такое торрент  ·   Рейтинг и ограничения

Пост 04-Май-2012 07:28 (спустя 4 часа)

Топик был перенесен из форума Наше Кино в форум Новинки (HD|DVD|BD|TV|SAT|PDTV| - Rips)

ara1205
 

borskiy

Лоцман

Пост 04-Май-2012 07:43 (спустя 5 часов)

[Q] 

спасибо!
[Профиль]  [ЛС] 

ficus42

Корсар

Пост 04-Май-2012 21:48 (спустя 14 часов)

[Q] 

Будем посмотреть.
[Профиль]  [ЛС] 

anonymoys

Гроза морей

901

Пост 04-Май-2012 21:56 (спустя 8 минут)

[Q] 

[Профиль]  [ЛС] 

aiden57

Гроза морей

3259

Пост 13-Май-2012 12:48 (спустя 8 дней)

[Q] 


_________________

Мои раздачи
[Профиль]  [ЛС] 

BeckStone

Штурман

Пост 20-Май-2012 23:06 (спустя 7 дней)

[Q] 

[Профиль]  [ЛС] 

Пост 07-Июн-2012 12:21 (спустя 17 дней)

Топик был перенесен из форума Новинки (HD|DVD|BD|TV|SAT|PDTV| - Rips) в форум Российские фильмы

erchine
 

Alexe10

Гроза морей

36

Пост 14-Дек-2013 13:50 (спустя 1 год 6 месяцев)

[Q] 

Автору респект!!!
[Профиль]  [ЛС] 
Показать сообщения:    
Ответить на тему

Текущее время: Сегодня 23:48

Часовой пояс: GMT + 4



Вы не можете начинать темы
Вы не можете отвечать на сообщения
Вы не можете редактировать свои сообщения
Вы не можете удалять свои сообщения
Вы не можете голосовать в опросах
Вы не можете прикреплять файлы к сообщениям
Вы не можете скачивать файлы

▼ Вниз