ML
     
  Уважаемый Гость!
Вы можете поддержать проект и зарегистрироваться у наших партнеров - онлайн-стратегия MyLands. При регистрации в игре Вы получите код, который сможете активировать после регистрации на pirat.ca и получить 1000 дублонов.

Ваш код:
4399ab8611ee7f8a22949d2ee7634160dd2db7e0
 
     

Шпион (Алексей Андрианов) [2012 г., триллер, детектив, приключения, DVDRip-AVC] (Лицензия) [internal release]

Страницы :  1, 2  След.

Ответить на тему
 
Автор
Сообщение

Пост 04-Май-2012 17:47

[Q] 

zyyx

--Шпион
«Остановить неизбежное»
-- Год выпуска: 2012
Российская премьера: 5 апреля 2012, «Централ Партнершип»
Производство: Россия
Жанр: триллер, детектив, приключения
Продолжительность: 01:44:23
Перевод: Не требуется [Лицензия]
Режиссер: Алексей Андрианов
В ролях: Данила Козловский, Фёдор Бондарчук, Владимир Епифанцев, Сергей Газаров, Виктор Вержбицкий, Виктория Толстоганова, Анна Чиповская, Алексей Горбунов, Алексей Гаврилов, Екатерина Мельник
Описание: Весна 1941 года. В центре Москвы разворачивается напряжённый поединок двух разведок. Цель тайной операции Гитлера — дезинформировать Сталина о планах нападения Германии на Советский Союз.
Старший майор Октябрьский и лейтенант Дорин против гения фашистского шпионажа. Схватка на фоне большой истории, освещенной заревом грядущей войны.
Источник/Качество: DVDRip-AVC | Сэмпл
Формат: MKV
Видео кодек: H.264
Аудио кодек: AC3
Видео: 720x304, 25fps, 1555 Kbps, 0.284 bit/pixel
Аудио: 48.0 KHz, 6 ch, 448 Kbps
General
Unique ID : 176472693181605963072458720505465480023 (0x84C36787D72B54B39C63FEEED8752357)
Complete name : O:\rips zyyx\Shpion.2012.DVDRip-AVC.zyyx.mkv
Format : Matroska
Format version : Version 2
File size : 1.46 GiB
Duration : 1h 44mn
Overall bit rate : 2 003 Kbps
Movie name : Шпион 2012 - Internal Release for zyyx (pirat.ca)
Encoded date : UTC 2012-05-04 13:40:35
Writing application : mkvmerge v4.9.1 ('Ich will') сборка от Jul 11 2011 23:53:15
Writing library : libebml v1.2.1 + libmatroska v1.1.1
Video
ID : 1
Format : AVC
Format/Info : Advanced Video Codec
Format profile : [email protected]
Format settings, CABAC : Yes
Format settings, ReFrames : 11 frames
Muxing mode : Header stripping
Codec ID : V_MPEG4/ISO/AVC
Duration : 1h 44mn
Bit rate : 1 555 Kbps
Width : 720 pixels
Height : 304 pixels
Display aspect ratio : 2.35:1
Frame rate : 25.000 fps
Color space : YUV
Chroma subsampling : 4:2:0
Bit depth : 8 bits
Scan type : Progressive
Bits/(Pixel*Frame) : 0.284
Stream size : 1.10 GiB (76%)
Writing library : x264 core 116 r2044 392e762
Default : Yes
Forced : No
Audio
ID : 2
Format : AC-3
Format/Info : Audio Coding 3
Mode extension : CM (complete main)
Muxing mode : Header stripping
Codec ID : A_AC3
Duration : 1h 44mn
Bit rate mode : Constant
Bit rate : 448 Kbps
Channel(s) : 6 channels
Channel positions : Front: L C R, Side: L R, LFE
Sampling rate : 48.0 KHz
Bit depth : 16 bits
Compression mode : Lossy
Stream size : 335 MiB (22%)
Default : Yes
Forced : No








Download / Скачать

Хотите скачать бесплатно? Зарегистрируйтесь на сайте (ссылка на регистрацию). Pirat.ca - самый быстрый торрент трекер в рунете!

Как скачивать  ·   Что такое торрент  ·   Рейтинг и ограничения

Пост 04-Май-2012 21:22 (спустя 3 часа)

Топик был перенесен из форума Наше Кино в форум Новинки (HD|DVD|BD|TV|SAT|PDTV| - Rips)

erchine
 

ficus42

Корсар

Пост 04-Май-2012 21:44 (спустя 3 часа)

[Q] 

Будем посмотреть.
[Профиль]  [ЛС] 

C0y0te

1415

Пост 04-Май-2012 21:48 (спустя 4 минуты)

[Q] 

[Профиль]  [ЛС] 

Ника-Кика

Шкипер

Пост 04-Май-2012 22:19 (спустя 30 минут)

[Q] 

[Профиль]  [ЛС] 

Spieler95

Морской Волк

168

Пост 04-Май-2012 22:58 (спустя 39 минут)

[Q] 


_________________
[Профиль]  [ЛС] 

Spieler95

Морской Волк

168

Пост 04-Май-2012 23:16 (спустя 17 минут)

[Q] 

Пацаны,встаньте плиз на раздачу,до 93 % нормально шло,а потом :

_________________
[Профиль]  [ЛС] 

lucky14

Корсар

Пост 05-Май-2012 00:36 (спустя 1 час 20 минут)

[Q] 

хороший фильм
[Профиль]  [ЛС] 

rekrut26

Морской Волк

67

Пост 05-Май-2012 10:39 (спустя 10 часов)

[Q] 


_________________
[Профиль]  [ЛС] 

marcopolo27

Шкипер

Пост 05-Май-2012 11:15 (спустя 35 минут)

[Q] 

фильм неплох, но некоторые актеры уже конкретно достали
[Профиль]  [ЛС] 

Host2ge

Штурман

Пост 05-Май-2012 23:05 (спустя 11 часов)

[Q] 

Очередной шедевр русского кинематографа)))))
[Профиль]  [ЛС] 

kisu

Гроза морей

Пост 05-Май-2012 23:20 (спустя 14 минут)

[Q] 

спасибо!заценим!
[Профиль]  [ЛС] 

puxa32

Штурман

Пост 08-Май-2012 15:15 (спустя 2 дня 15 часов)

[Q] 

[Профиль]  [ЛС] 

mjurs

Корсар

Пост 08-Май-2012 19:22 (спустя 4 часа)

[Q] 

[Профиль]  [ЛС] 

effiglio

Корсар

Пост 09-Май-2012 09:56 (спустя 14 часов)

[Q] 

[Профиль]  [ЛС] 

Саша 82 08

Штурман

Пост 11-Май-2012 13:32 (спустя 2 дня 3 часа)

[Q] 

спасибо,полный респект
[Профиль]  [ЛС] 

Lord_Bayron

Шкипер

Пост 11-Май-2012 14:43 (спустя 1 час 11 минут)

[Q] 

чет мне не вкатил
[Профиль]  [ЛС] 

Оста

Лоцман

Пост 12-Май-2012 20:18 (спустя 1 день 5 часов)

[Q] 

а качество как?
[Профиль]  [ЛС] 

Berar

Корсар

Пост 13-Май-2012 00:07 (спустя 3 часа)

[Q] 

[Профиль]  [ЛС] 

Smail

Корсар

5969

Пост 13-Май-2012 00:20 (спустя 12 минут)

[Q] 

Комментарии не понятны мне... dk
За старание

_________________
[Профиль]  [ЛС] 

Voland57

Корсар

Пост 13-Май-2012 15:25 (спустя 15 часов)

[Q] 

[Профиль]  [ЛС] 

_koba

Легенда

Пост 14-Май-2012 18:38 (спустя 1 день 3 часа)

[Q] 

какой то невнятный фильм ...
[Профиль]  [ЛС] 

ursus

Морской Волк

Пост 14-Май-2012 18:44 (спустя 6 минут)

[Q] 

[Профиль]  [ЛС] 

Andruxa86

Морской Волк

Пост 14-Май-2012 22:31 (спустя 3 часа)

[Q] 

[Профиль]  [ЛС] 

rudi

Лоцман

Пост 14-Май-2012 22:50 (спустя 18 минут)

[Q] 

Спасибо
[Профиль]  [ЛС] 

roma77741

Штурман

Пост 17-Май-2012 01:29 (спустя 2 дня 2 часа)

[Q] 

[Профиль]  [ЛС] 

serikpay

Лоцман

Пост 17-Май-2012 09:15 (спустя 7 часов)

[Q] 

хрень полная. Выдержал 6 минут просморта...
[Профиль]  [ЛС] 

crazy...fox

Шкипер

Пост 17-Май-2012 23:15 (спустя 13 часов)

[Q] 

посмотрим что за шпион...

_________________
Я не страдаю манией величия. Великие люди этим не страдают.
[Профиль]  [ЛС] 

igo-go

Корсар

Пост 18-Май-2012 21:02 (спустя 21 час)

[Q] 

пираты, а расширение аvi будет ?
[Профиль]  [ЛС] 

clark

Морской Волк

Пост 18-Май-2012 22:01 (спустя 59 минут)

[Q] 

спс

_________________
Последним смеётся тот, кто стреляет первым.
[Профиль]  [ЛС] 
Показать сообщения:    
Ответить на тему

Текущее время: Сегодня 10:46

Часовой пояс: GMT + 4



Вы не можете начинать темы
Вы не можете отвечать на сообщения
Вы не можете редактировать свои сообщения
Вы не можете удалять свои сообщения
Вы не можете голосовать в опросах
Вы не можете прикреплять файлы к сообщениям
Вы не можете скачивать файлы

▼ Вниз