ML
     
  Уважаемый Гость!
Вы можете поддержать проект и зарегистрироваться у наших партнеров - онлайн-стратегия MyLands. При регистрации в игре Вы получите код, который сможете активировать после регистрации на pirat.ca и получить 1000 дублонов.

Ваш код:
ec3b26eefbcdc72e08e9fd33c6846bb2ca10f8b1
 
     

Сибиряк (Игорь Москвитин) [2011 г., Детектив, Криминал, SATRip]

Ответить на тему
 
Автор
Сообщение

Пост 05-Дек-2011 19:35

[Q] 

UA4HQW

Флибустьер

Сибиряк
Год выпуска: 2011
Жанр: Детектив, Криминал
Продолжительность: 01:31:45
Режиссер: Игорь Москвитин
В ролях: Егор Пазенко, Роман Жилкин, Константин Соловьев, Анна Азарова, Екатерина Проскурина и др.
Описание: Александр Кривошапко, Ольга Цибульская, Коля Серьга расскажут Юлии Литвиненко и Отару Кушанашвили о том, как повлияло участие в талант-шоу на их жизнь, удалось ли достигнуть желаемой славы, денег и успеха. Свою точку зрения на многочисленные поиски талантов на украинском телевидении также выскажут продюсеры – Игорь Кондратюк и Евгений Орлов.Несколько лет назад Андрей Молотов погрузил вещи в багажник и переехал из далекого сибирского городка в Питер , где вместе с приятелем Артёмом Шуваловым организовал строительную фирму. Сначала был один дом, который они вдвоем и строили, затем два, дальше четыре. Постепенно компания Молотова и Шувалова из небольшой фирмы превратилась в солидного игрока строительного рынка города, началось участие в городских тендерах, получение прав на постройку крупных объектов. Вскоре даже главных конкурент предложил выкупить их прибыльный бизнес. Артём сразу согласился, а вот Андрей наотрез отказался подписать бумаги. Поступил бы он иначе, если бы знал, к чему приведет его отказ, а главное — кем будет нанесен главный удар?..
Кинопоиск
Источник/Качество: SATRip
Формат: AVI
Видео кодек: XviD
Аудио кодек: MP3
Видео: 704x376 (1.87:1), 25 fps, XviD build 64 ~2070 kbps avg, 0.31 bit/pixel
Аудио: 48 kHz, MPEG Layer 3, 2 ch, ~128.00 kbps avg
Общее
Полное имя : Sibiryak.2011.XviD.SATRip.[pirat.ca].avi
Формат : AVI
Формат/Информация : Audio Video Interleave
Размер файла : 1,38 Гбайт
Продолжительность : 1 ч. 29 м.
Общий поток : 2209 Кбит/сек
Программа кодирования : VirtualDubMod 1.5.10.3 | www.virtualdub-fr.org || (build 2550/release)
Библиотека кодирования : VirtualDubMod build 2550/release
Видео
Идентификатор : 0
Формат : MPEG-4 Visual
Профиль формата : Advanced [email protected]
Параметр BVOP формата : 1
Параметр QPel формата : Нет
Параметр GMC формата : Без точки перехода
Параметр матрицы формата : Default (H.263)
Идентификатор кодека : XVID
Идентификатор кодека/Подсказка : XviD
Продолжительность : 1 ч. 29 м.
Битрейт : 2071 Кбит/сек
Ширина : 704 пикс.
Высота : 376 пикс.
Соотношение сторон : 1,872
Частота кадров : 25,000 кадр/сек
Цветовое пространство : YUV
Подвыборка цветности : 4:2:0
Битовая глубина : 8 бит
Тип развёртки : Чересстрочная
Порядок развёртки : Нижнее поле первое
Метод сжатия : С потерями
Бит/(Пиксели*Кадры) : 0.313
Размер потока : 1,30 Гбайт (94%)
Библиотека кодирования : XviD 64
Аудио
Идентификатор : 1
Формат : MPEG Audio
Версия формата : Version 1
Профиль формата : Layer 3
Режим : Joint stereo
Расширение режима : MS Stereo
Идентификатор кодека : 55
Идентификатор кодека/Подсказка : MP3
Продолжительность : 1 ч. 29 м.
Вид битрейта : Постоянный
Битрейт : 128 Кбит/сек
Каналы : 2 канала
Частота : 48,0 КГц
Метод сжатия : С потерями
Размер потока : 82,2 Мбайт (6%)
Выравнивание : Соединение по промежуткам
Продолжительность промежутка : 40 мс. (1,00 видеокадр)
Время предзагрузки промежутка : 504 ms
Библиотека кодирования : LAME3.98r
Настройки программы : -m j -V 4 -q 2 -lowpass 17 -b 128



,
Download / Скачать

Хотите скачать бесплатно? Зарегистрируйтесь на сайте (ссылка на регистрацию). Pirat.ca - самый быстрый торрент трекер в рунете!

Как скачивать  ·   Что такое торрент  ·   Рейтинг и ограничения

Пост 06-Дек-2011 06:19 (спустя 10 часов)

Топик был перенесен из форума Наше Кино в форум Российские фильмы

Skinwalker
 

okorm

889

Пост 04-Май-2013 16:27 (спустя 1 год 4 месяца)

[Q] 

[Профиль]  [ЛС] 
Показать сообщения:    
Ответить на тему

Текущее время: Сегодня 03:49

Часовой пояс: GMT + 4



Вы не можете начинать темы
Вы не можете отвечать на сообщения
Вы не можете редактировать свои сообщения
Вы не можете удалять свои сообщения
Вы не можете голосовать в опросах
Вы не можете прикреплять файлы к сообщениям
Вы не можете скачивать файлы

▼ Вниз