ML
     
  Уважаемый Гость!
Вы можете поддержать проект и зарегистрироваться у наших партнеров - онлайн-стратегия MyLands. При регистрации в игре Вы получите код, который сможете активировать после регистрации на pirat.ca и получить 1000 дублонов.

Ваш код:
74c28610d77aaac24ba694c4128f3b9b46b04220
 
     

Мексиканский вояж Степаныча (Максим Воронков) [2012 г., Комедия, SATRip]

Ответить на тему
 
Автор
Сообщение

Пост 09-Май-2012 16:14

[Q] 

leha1975

Гроза морей

Мексиканский вояж Степаныча
Год выпуска: 2012
Жанр: Комедия
Продолжительность: 01:20:38
Премьера (РФ) 6 мая 2012
Режиссер: Максим Воронков
В ролях: Илья Олейников, Татьяна Догилева, Михаил Владимиров, Лариса Удовиченко, Алиса Гребенщикова, Борис Грачевский, Жан Даниэль, Михаил Державин, Олег Флеер, Александр Числов, Ирина Дмитракова
Описание: У Степаныча депрессия, он потерял смысл жизни. Но внезапно сама судьба подсказывает ему выход. Из московской тюрьмы в Мексику сбежал Ваха. Степаныч получает задание от спецслужб: ехать вместе со своим старым другом Семеном в Мексику под видом простых туристов, кутить и дебоширить, вести себя как можно заметнее, а когда Ваха не выдержит и попытается убить Степаныча, его обезвредит майор Елена, которая всегда будет рядом под видом жены...

Сэмпл http://multi-up.com/699998
Источник/Качество: SATRip
Формат: AVI
Видео кодек: XviD
Аудио кодек: MP3
Видео: 720x400 (1.80:1) 25 fps XviD build 50 2221 kbps avg 0.31 bit/pixel
Аудио: 48 kHz MPEG Layer 3 2 ch 192.00 kbps avg
F:\pirat.ca\ðàçäà÷è-3\Ìåêñèêàíñêèé âîÿæ Ñòåïàíû÷à .avi
General
Complete name : F:\pirat.ca\ðàçäà÷è-3\Ìåêñèêàíñêèé âîÿæ Ñòåïàíû÷à .avi
Format : AVI
Format/Info : Audio Video Interleave
File size : 1.37 GiB
Duration : 1h 20mn
Overall bit rate : 2 424 Kbps
Writing application : VirtualDubMod 1.5.10.3 | www.virtualdub-fr.org || (build 2550/release)
Writing library : VirtualDubMod build 2550/release
Video #0
ID : 0
Format : MPEG-4 Visual
Format profile : Advanced [email protected]
Format settings, BVOP : Yes
Format settings, QPel : No
Format settings, GMC : No warppoints
Format settings, Matrix : Default (H.263)
Codec ID : XVID
Codec ID/Hint : XviD
Duration : 1h 20mn
Bit rate : 2 222 Kbps
Width : 720 pixels
Height : 400 pixels
Display aspect ratio : 16:9
Frame rate : 25.000 fps
Resolution : 8 bits
Colorimetry : 4:2:0
Scan type : Progressive
Bits/(Pixel*Frame) : 0.309
Stream size : 1.25 GiB (92%)
Writing library : XviD 1.2.1 (UTC 2008-12-04)
Audio #1
ID : 1
Format : MPEG Audio
Format version : Version 1
Format profile : Layer 3
Codec ID : 55
Codec ID/Hint : MP3
Duration : 1h 20mn
Bit rate mode : Constant
Bit rate : 192 Kbps
Channel(s) : 2 channels
Sampling rate : 48.0 KHz
Stream size : 111 MiB (8%)
Alignment : Aligned on interleaves
Interleave, duration : 40 ms (1.00 video frame)
Interleave, preload duration : 504 ms
Writing library : LAME3.98r
Encoding settings : -m s -V 4 -q 2 -lowpass 18.6 -b 192
Download / Скачать

Хотите скачать бесплатно? Зарегистрируйтесь на сайте (ссылка на регистрацию). Pirat.ca - самый быстрый торрент трекер в рунете!

Как скачивать  ·   Что такое торрент  ·   Рейтинг и ограничения



Последний раз редактировалось: leha1975 (2012-05-09 17:17), всего редактировалось 1 раз

Пост 09-Май-2012 17:36 (спустя 1 час 22 минуты)

Топик был перенесен из форума Наше Кино в форум Новинки (HD|DVD|BD|TV|SAT|PDTV| - Rips)

erchine
 

shteker

Морской Волк

Пост 09-Май-2012 17:44 (спустя 1 час 30 минут)

[Q] 

[Профиль]  [ЛС] 

xxxLOGICxxx

Корсар

Пост 09-Май-2012 18:49 (спустя 1 час 5 минут)

[Q] 

[Профиль]  [ЛС] 

sergey-309

Морской Волк

Пост 09-Май-2012 23:34 (спустя 4 часа)

[Q] 

[Профиль]  [ЛС] 

dimonpa

Гроза морей

Пост 10-Май-2012 08:17 (спустя 8 часов)

[Q] 

[Профиль]  [ЛС] 

Денис 000

Лоцман

Пост 10-Май-2012 20:26 (спустя 12 часов)

[Q] 

пожалуйста станьте кто нибудь на раздачу!!!дайте скорости. ei
[Профиль]  [ЛС] 

bruder

Флибустьер

Пост 11-Май-2012 19:58 (спустя 23 часа)

[Q] 

Реально в Мексике снято или где-нибудь в Сочах?

_________________
[Профиль]  [ЛС] 

antnov

Лоцман

Пост 13-Май-2012 10:46 (спустя 1 день 14 часов)

[Q] 

[Профиль]  [ЛС] 

Fonarik1

Лоцман

Пост 15-Май-2012 13:17 (спустя 2 дня 2 часа)

[Q] 

Смотрел 3 дня, за раз такое не просмотришь, грустно, не смешно, обидно за испорченный фильм.
[Профиль]  [ЛС] 

pokermike299

Корсар

Пост 15-Май-2012 23:16 (спустя 9 часов)

[Q] 

хлам. правда смотрел с бадуна-уснул
[Профиль]  [ЛС] 

Voland57

Корсар

Пост 17-Май-2012 20:46 (спустя 1 день 21 час)

[Q] 

Спасибо!
[Профиль]  [ЛС] 

italiano711

Гроза морей

Пост 26-Май-2012 01:39 (спустя 8 дней)

[Q] 

Мнения разделились!
Наверно нужно всё-таки посмотреть.
[Профиль]  [ЛС] 

KOS1612

Корсар

Пост 30-Май-2012 18:51 (спустя 4 дня)

[Q] 

[Профиль]  [ЛС] 

Пост 20-Июн-2012 13:09 (спустя 20 дней)

Топик был перенесен из форума Новинки (HD|DVD|BD|TV|SAT|PDTV| - Rips) в форум Российские фильмы

erchine
 

rig1

Лоцман

Пост 28-Окт-2012 22:33 (спустя 4 месяца 29 дней)

[Q] 


[Профиль]  [ЛС] 

hohol541

Корсар

Пост 29-Дек-2012 10:45 (спустя 2 месяца)

[Q] 

Ещё не посмотрел.Надеюсь не заездили тему.
[Профиль]  [ЛС] 

UncleFather

Легенда

Пост 24-Мар-2013 20:52 (спустя 2 месяца 26 дней)

[Q] 


_________________
Одни боялись Пью, другие - Билли Бонса, а меня... меня боялся сам Флинт
[Профиль]  [ЛС] 
Показать сообщения:    
Ответить на тему

Текущее время: Сегодня 09:56

Часовой пояс: GMT + 4



Вы не можете начинать темы
Вы не можете отвечать на сообщения
Вы не можете редактировать свои сообщения
Вы не можете удалять свои сообщения
Вы не можете голосовать в опросах
Вы не можете прикреплять файлы к сообщениям
Вы не можете скачивать файлы

▼ Вниз