ML
     
  Уважаемый Гость!
Вы можете поддержать проект и зарегистрироваться у наших партнеров - онлайн-стратегия MyLands. При регистрации в игре Вы получите код, который сможете активировать после регистрации на pirat.ca и получить 1000 дублонов.

Ваш код:
156f85568ae63e45e07ac461c96a83ba1a876b0a
 
     

Реальная сказка (Андрей Мармонтов) [2011 г., фэнтези, драма, комедия, семейный, DVDRip]

Ответить на тему
 
Автор
Сообщение

Пост 05-Дек-2011 22:04

[Q] 

Moln1a

Корсар

Реальная сказка
Год выпуска: 2011
Жанр: фэнтези, драма, комедия, семейный
Продолжительность: 01:41:58
Перевод: Не требуется
Режиссер: Андрей Мармонтов
В ролях: Сергей Безруков, Леонид Ярмольник, Максим Шибаев, Анастасия Добрынина, Ирина Безрукова, Георгий Штиль, Людмила Полякова, Анна Герман, Сергей Погосян, Антон Пампушный
Описание: Жили-были сестрица Олесенька и братец Саша… Нет, так не пойдет: кажется, прошла пора старых-добрых сказок. Даже сказочные персонажи, понимая это, переселились в наш мир: Василиса Премудрая стала учительницей, Леший — бомжом, Иван-дурак — ВДВшником, Кащей — олигархом. Злые дела творить он, конечно, не бросил. И главным его злодеянием стало то, что он лишил нас веры в чудо. Люди стали эгоистичными, расчетливыми и прагматичными, что Кащею — как бальзам на душу. Только одно не дает ему спокойно спать: благодаря сказкам, каждый ребенок знает, где искать его смерть. И какой же он после этого бессмертный? Кащей идет на крайние меры и безжалостно уничтожает все страницы сказок, где описана его страшная тайна. Маленькая девочка Олеся находит нетронутую старинную книгу сказок и, прочитав ее, вскоре… исчезает. Старший брат девочки, школьник Саша, бросается на поиски, рассчитывая на поддержку новых знакомых — Ивана-дурака и его жены Василисы, — но они, вопреки ожиданиям, не спешат помогать ему в его борьбе с Кащеем. Саша же готов пойти на все, чтобы вернуть сестренку и подарить миру веру в чудо.
Сэмпл
Источник/Качество: DVDRip
Формат: AVI
Видео кодек: XviD
Аудио кодек: AC3
Видео: 720x304 (2.37:1), 25 fps, XviD build 47 ~1461 kbps avg, 0.27 bit/pixel
Аудио: 48 kHz, AC3 Dolby Digital, 3/2 (L,C,R,l,r) + LFE ch, ~448.00 kbps avg


Формат : AVI
Формат/Информация : Audio Video Interleave
Размер файла : 1,37 Гбайт
Продолжительность : 1 ч. 41 м.
Общий поток : 1920 Кбит/сек
Название фильма : Realnaja.skazka.2011.O.DVDRip
Жанр : Fantasy
Программа кодирования : VirtualDubMod 1.5.10.2 (build 2540/release)
Формат оригинала/Имя : Movie
Видео
Идентификатор : 0
Формат : MPEG-4 Visual
Профиль формата : Advanced [email protected]
Параметр BVOP формата : 2
Параметр QPel формата : Нет
Параметр GMC формата : Без точки перехода
Параметр матрицы формата : Выборочная
Идентификатор кодека : XVID
Идентификатор кодека/Подсказка : XviD
Продолжительность : 1 ч. 41 м.
Битрейт : 1387 Кбит/сек
Ширина : 720 пикс.
Высота : 304 пикс.
Соотношение сторон : 2,35:1
Частота кадров : 25,000 кадр/сек
Цветовое пространство : YUV
Подвыборка цветности : 4:2:0
Битовая глубина : 8 бит
Тип развёртки : Прогрессивная
Метод сжатия : С потерями
Бит/(Пиксели*Кадры) : 0.253
Размер потока : 1011 Мбайт (72%)
Библиотека кодирования : XviD 1.2.0.dev47 (UTC 2006-11-01)
Аудио
Идентификатор : 1
Формат : AC-3
Формат/Информация : Audio Coding 3
Расширение режима : CM (complete main)
Идентификатор кодека : 2000
Продолжительность : 1 ч. 41 м.
Вид битрейта : Постоянный
Битрейт : 448 Кбит/сек
Каналы : 6 каналов
Расположение каналов : Front: L C R, Side: L R, LFE
Частота : 48,0 КГц
Битовая глубина : 16 бит
Метод сжатия : С потерями
Размер потока : 327 Мбайт (23%)
Выравнивание : Разделение по промежуткам
Download / Скачать

Хотите скачать бесплатно? Зарегистрируйтесь на сайте (ссылка на регистрацию). Pirat.ca - самый быстрый торрент трекер в рунете!

Как скачивать  ·   Что такое торрент  ·   Рейтинг и ограничения

mixa83

Лоцман

Пост 05-Дек-2011 23:17 (спустя 1 час 12 минут)

[Q] 

Если посмотреть инфо то Битрейт : 1387 Кбит/сек

_________________
Мудрости свойственно открывать глаза, а глупости - рот.
[Профиль]  [ЛС] 

Пост 06-Дек-2011 00:10 (спустя 53 минуты)

Топик был перенесен из форума Наше Кино в форум Новинки (HD|DVD|BD|TV|SAT|PDTV| - Rips)

Skinwalker
 

Sonic777

Корсар

Пост 06-Дек-2011 02:01 (спустя 2 часа 44 минуты)

[Q] 

Спасибо большое..глянем что за чудо)
[Профиль]  [ЛС] 

nosferato

Штурман

Пост 06-Дек-2011 04:37 (спустя 2 часа 35 минут)

[Q] 

Спасибо!!! забираю.

_________________
Велик интернет, а отступать некуда - позади фидо
[Профиль]  [ЛС] 

dimonpa

Гроза морей

Пост 06-Дек-2011 05:38 (спустя 1 час 1 минута)

[Q] 

Спасибо !!!
[Профиль]  [ЛС] 

gamm1beer

Морской Волк

Пост 07-Дек-2011 02:31 (спустя 20 часов)

[Q] 

новое рашен чудо

_________________
[Профиль]  [ЛС] 

Lana38

Корсар

Пост 07-Дек-2011 16:07 (спустя 13 часов)

[Q] 

Раздающему - респект)
[Профиль]  [ЛС] 

GarySk

Корсар

Пост 07-Дек-2011 18:24 (спустя 2 часа 16 минут)

[Q] 

Спасибо большое!!
[Профиль]  [ЛС] 

UA4HQW

Флибустьер

2528

Пост 07-Дек-2011 19:17 (спустя 52 минуты)

[Q] 

Ничо так.Разок посмотреть.Артисты опять же славные.Тока музыка громче речи.Раздающему респект.
[Профиль]  [ЛС] 

IVANMEN

Штурман

Пост 09-Дек-2011 22:49 (спустя 2 дня 3 часа)

[Q] 

Спасибо! Посмотрим что за чудо.
[Профиль]  [ЛС] 

Aleks44

Гроза морей

Пост 10-Дек-2011 23:03 (спустя 1 день)

[Q] 

Нормальная позитивная сказка возвращает в детство, местами скучноватая но если брать в целом то можно с семьей провести вечер. хоть вспомнить что у России есть свои сказочные герои, а не супермены, бэтманы и т.д Хороший фильм посмотреть и отдохнуть не непрегаясь бочку в трюм отправил за труд
[Профиль]  [ЛС] 

markuzek

Шкипер

Пост 10-Дек-2011 23:29 (спустя 25 минут)

[Q] 

Благодарю. Фильм на 4 с минусом.
[Профиль]  [ЛС] 

Валерий001

Шкипер

8

Пост 11-Дек-2011 08:59 (спустя 9 часов)

[Q] 

нихера это не комедия, но фильм ЗАЧЕТНЫЙ
[Профиль]  [ЛС] 

K-0-t

Морской Волк

544

Пост 16-Янв-2012 15:36 (спустя 1 месяц 5 дней)

[Q] 

Спасибо.
[Профиль]  [ЛС] 

Совунья

Морской Волк

Пост 18-Янв-2012 19:42 (спустя 2 дня 4 часа)

[Q] 

Хороший фильм, современные дети действительно куда лучше знают покемонов, чем героев русских сказок.

_________________
Я верю в честность Президента, и в неподкупность постовых! В заботу банка о клиентах. В вампиров верю, в домовых.
[Профиль]  [ЛС] 

olmed

Корсар

Пост 23-Янв-2012 18:39 (спустя 4 дня)

[Q] 

Спасибо!
[Профиль]  [ЛС] 

pokermike299

Корсар

Пост 25-Янв-2012 14:00 (спустя 1 день 19 часов)

[Q] 

спасибо, покажу дочке.
[Профиль]  [ЛС] 

ayavriks

Лоцман

Пост 25-Янв-2012 16:46 (спустя 2 часа 46 минут)

[Q] 

Спасибо за раздачу с удовольствием посмотрим
[Профиль]  [ЛС] 

baltimor337

Корсар

Пост 25-Янв-2012 19:12 (спустя 2 часа 25 минут)

[Q] 

спасибо
[Профиль]  [ЛС] 

dimarik732

Шкипер

Пост 26-Янв-2012 22:07 (спустя 1 день 2 часа)

[Q] 

точно чудо фильм
[Профиль]  [ЛС] 

Татьянка

Штурман

Пост 26-Янв-2012 23:29 (спустя 1 час 21 минута)

[Q] 

спасибо! хороший фильм ab
[Профиль]  [ЛС] 

SaNyABA89

Морской Волк

Пост 26-Фев-2012 14:50 (спустя 30 дней)

[Q] 

спасибо

_________________
Талантам нужно помогать, бездарности пробьются сами!
[Профиль]  [ЛС] 

Cap Flint

Морской Волк

193

Пост 03-Апр-2012 19:08 (спустя 1 месяц 6 дней)

[Q] 

Спасибо за раздачу. Посмотрим что за чудо.

_________________
[Профиль]  [ЛС] 
Показать сообщения:    
Ответить на тему

Текущее время: Сегодня 21:57

Часовой пояс: GMT + 4



Вы не можете начинать темы
Вы не можете отвечать на сообщения
Вы не можете редактировать свои сообщения
Вы не можете удалять свои сообщения
Вы не можете голосовать в опросах
Вы не можете прикреплять файлы к сообщениям
Вы не можете скачивать файлы

▼ Вниз