ML
     
  Уважаемый Гость!
Вы можете поддержать проект и зарегистрироваться у наших партнеров - онлайн-стратегия MyLands. При регистрации в игре Вы получите код, который сможете активировать после регистрации на pirat.ca и получить 1000 дублонов.

Ваш код:
93dbf9fbdfa06c41d3b5a2c3921149ba36168c41
 
     

Реальная сказка (Андрей Мармонтов) [2011 г., фэнтези, драма, комедия, семейный, DVDRip]

Ответить на тему
 
Автор
Сообщение

Пост 06-Дек-2011 05:56

[Q] 

zyyx

--Реальная сказка
«Надо просто верить»
-- Год выпуска: 2011
Мировая премьера: 3 ноября 2011
Российская премьера: 3 ноября 2011, «Централ Партнершип»
Дата выхода DVD: 8 декабря 2011, «Новый Диск»
Дата выхода Blu-Ray: 22 декабря 2011, «Новый Диск»
Страна: Россия
Жанр: фэнтези, драма, комедия, семейный
Продолжительность: 01:41:57
Перевод: Не требуется [Лицензия]
Режиссер: Андрей Мармонтов
В ролях: Сергей Безруков, Леонид Ярмольник, Максим Шибаев, Анастасия Добрынина, Ирина Безрукова, Георгий Штиль, Людмила Полякова, Анна Герман, Сергей Погосян, Антон Пампушный
Описание: Жили-были сестрица Олесенька и братец Саша… Нет, так не пойдет: кажется, прошла пора старых-добрых сказок. Даже сказочные персонажи, понимая это, переселились в наш мир: Василиса Премудрая стала учительницей, Леший — бомжом, Иван-дурак — ВДВшником, Кащей — олигархом. Злые дела творить он, конечно, не бросил. И главным его злодеянием стало то, что он лишил нас веры в чудо.
Люди стали эгоистичными, расчетливыми и прагматичными, что Кащею — как бальзам на душу. Только одно не дает ему спокойно спать: благодаря сказкам, каждый ребенок знает, где искать его смерть. И какой же он после этого бессмертный? Кащей идет на крайние меры и безжалостно уничтожает все страницы сказок, где описана его страшная тайна.
Маленькая девочка Олеся находит нетронутую старинную книгу сказок и, прочитав ее, вскоре… исчезает. Старший брат девочки, школьник Саша, бросается на поиски, рассчитывая на поддержку новых знакомых — Ивана-дурака и его жены Василисы, — но они, вопреки ожиданиям, не спешат помогать ему в его борьбе с Кащеем. Саша же готов пойти на все, чтобы вернуть сестренку и подарить миру веру в чудо.-Сэмпл | КиноПоиск-Источник/Качество: DVDRip
Формат: AVI
Видео кодек: XviD
Аудио кодек: MP3
Видео: 640x272 (2.35:1), 25 fps, XviD MPEG-4, 823 kbps avg, 0.19 bit/pixel
Аудио: 48 kHz, MPEG Layer 3, 2 ch, 128.00 kbps avg
Общее
Полное имя : D:\pirat.ca\Realnaja.skazka.O.DVDRip.avi
Формат : AVI
Формат/Информация : Audio Video Interleave
Размер файла : 701 Мбайт
Продолжительность : 1 ч. 41 м.
Общий поток : 961 Кбит/сек
Программа кодирования : VirtualDubMod 1.5.10.3 | www.virtualdub-fr.org || (build 2550/release)
Библиотека кодирования : VirtualDubMod build 2550/release
Видео
Идентификатор : 0
Формат : MPEG-4 Visual
Профиль формата : Advanced [email protected]
Параметр BVOP формата : 2
Параметр QPel формата : Нет
Параметр GMC формата : Без точки перехода
Параметр матрицы формата : Default (MPEG)
Режим смешивания : Сжатый битовый поток
Идентификатор кодека : XVID
Идентификатор кодека/Подсказка : XviD
Продолжительность : 1 ч. 41 м.
Битрейт : 824 Кбит/сек
Ширина : 640 пикселей
Высота : 272 пикселя
Соотношение сторон : 2,35:1
Частота кадров : 25,000 кадров/сек
Цветовое пространство : YUV
Субдискретизация насыщенности : 4:2:0
Битовая глубина : 8 бит
Тип развёртки : Прогрессивная
Метод сжатия : С потерями
Бит/(Пиксели*Кадры) : 0.189
Размер потока : 601 Мбайт (86%)
Библиотека кодирования : XviD 64
Аудио
Идентификатор : 1
Формат : MPEG Audio
Версия формата : Version 1
Профиль формата : Layer 3
Идентификатор кодека : 55
Идентификатор кодека/Подсказка : MP3
Продолжительность : 1 ч. 41 м.
Вид битрейта : Постоянный
Битрейт : 128 Кбит/сек
Каналы : 2 канала
Частота : 48,0 КГц
Метод сжатия : С потерями
Размер потока : 93,4 Мбайт (13%)
Выравнивание : Соединение по промежуткам
Продолжительность промежутка : 40 мс. (1,00 видеокадр)
Время предзагрузки промежутка : 504 мс.
Библиотека кодирования : LAME3.98r
Настройки программы : -m s -V 4 -q 2 -lowpass 17 -b 128


Download / Скачать

Хотите скачать бесплатно? Зарегистрируйтесь на сайте (ссылка на регистрацию). Pirat.ca - самый быстрый торрент трекер в рунете!

Как скачивать  ·   Что такое торрент  ·   Рейтинг и ограничения

Пост 06-Дек-2011 06:11 (спустя 15 минут)

Топик был перенесен из форума Наше Кино в форум Новинки (HD|DVD|BD|TV|SAT|PDTV| - Rips)

Skinwalker
 

Engener

Морской Волк

Пост 06-Дек-2011 16:54 (спустя 10 часов)

[Q] 

Спасибо zuux за 700 метров!

_________________
Остановите Землю, я сойду!
[Профиль]  [ЛС] 

Hausser

Гроза морей

Пост 10-Дек-2011 16:45 (спустя 3 дня)

[Q] 

Очередные помои отечественного говнотографа.
[Профиль]  [ЛС] 

Серегазмей

Корсар

186

Пост 14-Янв-2012 01:31 (спустя 1 месяц 3 дня)

[Q] 

Не осилил даже 20 минут. Я Безрукова уважаю, но это откровенно провальный фильм.

_________________
[Профиль]  [ЛС] 

Pesok

Гроза морей

Пост 15-Янв-2012 11:57 (спустя 1 день 10 часов)

[Q] 

спасибо! очень понравился фильм, довольно оригинален с хоропими актерами и неплохими спешал еффектами

_________________
[Профиль]  [ЛС] 

trogvar_10

Корсар

38

Пост 06-Апр-2012 03:06 (спустя 2 месяца 21 день)

[Q] 

[Профиль]  [ЛС] 
Показать сообщения:    
Ответить на тему

Текущее время: Сегодня 20:17

Часовой пояс: GMT + 4



Вы не можете начинать темы
Вы не можете отвечать на сообщения
Вы не можете редактировать свои сообщения
Вы не можете удалять свои сообщения
Вы не можете голосовать в опросах
Вы не можете прикреплять файлы к сообщениям
Вы не можете скачивать файлы

▼ Вниз