ML
     
  Уважаемый Гость!
Вы можете поддержать проект и зарегистрироваться у наших партнеров - онлайн-стратегия MyLands. При регистрации в игре Вы получите код, который сможете активировать после регистрации на pirat.ca и получить 1000 дублонов.

Ваш код:
59354507ba913a0948d1a8f2e30f2e04c4cd7b9b
 
     

Наших бьют (Антон Борматов) [2011 г., комедия, криминал, DVDRip]

Ответить на тему
 
Автор
Сообщение

Пост 13-Май-2012 15:52

[Q] 

Amethyst

Наших бьют Год выпуска: 2011
Российская премьера: 21 октября 2011
Дата выхода DVD: 5 апреля 2012, «Дивайс», «ВС трейд»
Производство: Россия / Триикс Медиа
Жанр: комедия, криминал
Продолжительность: 01:27:54
Озвучивание: Оригинальное [Лицензия]
Режиссер: Антон Борматов
В ролях
Кирилл Полухин, Ян Цапник, Роман Ладнев, Егор Бакулин, Иван Васильев, Маргарита Бычкова, Константин Воробьёв, Андрей Пынзару, Екатерина Злая, Константин Лукашов
Описание
Главные герои — обычные 30-летние мужики, которые живут в обычной российской деревне, где всегда плохо с работой, где всегда нет денег, где гонят самогон, за который рассчитываются продуктами или дровами. Они не учились в институтах, не владеют иностранными языками, не разбираются в политике и считают слова «интернет» и «гламур» — ругательствами. За такие слова они и в морду могут дать. Жизнь они видят, в основном, по экрану телевизора. Да и то — черно-белого. Еще один их товарищ сначала устроил в деревне массовый загул по случаю собственной свадьбы (женился на первой деревенской красавице), а потом укатил с молодой женой в свадебное путешествие в Санкт-Петербург на старой отцовской машине. И вот в Питере он случайно «помял» какому-то навороченному пацану новый джип. Владелец джипа и его друганы потребовали с него за моральный и прочий ущерб кругленькую сумму. Ему только и оставалось, что друзьям позвонить, благо один телефон в деревне есть. Ну а друзья — за друга всегда горой!

Сэмпл , КиноПоиск
Источник/Качество: DVDRip
Формат: AVI
Видео кодек: XviD
Аудио кодек: AC3
Видео: XviD, 720x384, 1922kb/s, 25.000 fps
Аудио: AC-3, 6 ch, 448 Кбит/с, 48.0 kHz
Общее
Полное имя : D:\Торенты\Nashih b'yut.2010.DVDRip.[pirat.ca].avi
Формат : AVI
Формат/Информация : Audio Video Interleave
Размер файла : 1,46 Гбайт
Продолжительность : 1 ч. 27 м.
Общий поток : 2380 Кбит/сек
Программа кодирования : VirtualDubMod 1.5.10.2 (build 2540/release)
Библиотека кодирования : VirtualDubMod build 2540/release
Видео
Идентификатор : 0
Формат : MPEG-4 Visual
Профиль формата : Advanced [email protected]
Параметр BVOP формата : 2
Параметр QPel формата : Нет
Параметр GMC формата : Без точки перехода
Параметр матрицы формата : Выборочная
Идентификатор кодека : XVID
Идентификатор кодека/Подсказка : XviD
Продолжительность : 1 ч. 27 м.
Битрейт : 1922 Кбит/сек
Ширина : 720 пикселей
Высота : 384 пикселя
Соотношение сторон : 1,875
Частота кадров : 25,000 кадров/сек
Цветовое пространство : YUV
Субдискретизация насыщенности : 4:2:0
Битовая глубина : 8 бит
Тип развёртки : Прогрессивная
Метод сжатия : С потерями
Бит/(Пиксели*Кадры) : 0.278
Размер потока : 1,18 Гбайт (81%)
Библиотека кодирования : XviD 1.2.1 (UTC 2008-12-04)
Аудио
Идентификатор : 1
Формат : AC-3
Формат/Информация : Audio Coding 3
Расширение режима : CM (complete main)
Идентификатор кодека : 2000
Продолжительность : 1 ч. 27 м.
Вид битрейта : Постоянный
Битрейт : 448 Кбит/сек
Каналы : 6 каналов
Расположение каналов : Front: L C R, Side: L R, LFE
Частота : 48,0 КГц
Битовая глубина : 16 бит
Метод сжатия : С потерями
Размер потока : 282 Мбайт (19%)
Выравнивание : Разделение по промежуткам
Продолжительность промежутка : 40 мс. (1,00 видеокадр)
Время предзагрузки промежутка : 500 мс.
Download / Скачать

Хотите скачать бесплатно? Зарегистрируйтесь на сайте (ссылка на регистрацию). Pirat.ca - самый быстрый торрент трекер в рунете!

Как скачивать  ·   Что такое торрент  ·   Рейтинг и ограничения



Последний раз редактировалось: Amethyst (2012-05-13 17:23), всего редактировалось 5 раз(а)

Пост 13-Май-2012 16:24 (спустя 31 минута)

Топик был перенесен из форума Наше Кино в форум Новинки (HD|DVD|BD|TV|SAT|PDTV| - Rips)

erchine
 

dimonpa

Гроза морей

Пост 13-Май-2012 16:38 (спустя 45 минут)

[Q] 

[Профиль]  [ЛС] 

nadabibak

Гроза морей

Пост 13-Май-2012 17:22 (спустя 44 минуты)

[Q] 

Спасибо, но кажется фильм 2011 года
[Профиль]  [ЛС] 

Amethyst ®

27351

Пост 13-Май-2012 17:37 (спустя 14 минут)

[Q] 

В КиноПоиске так:
[Профиль]  [ЛС] 

xxxLOGICxxx

Корсар

Пост 13-Май-2012 19:25 (спустя 1 час 47 минут)

[Q] 

[Профиль]  [ЛС] 

sergokov

Флибустьер

754

Пост 15-Май-2012 20:20 (спустя 2 дня)

[Q] 

Фильм хотя и веселый, но разок посмотреш и забудеш.
[Профиль]  [ЛС] 

blondin777

Лоцман

Пост 16-Май-2012 00:39 (спустя 4 часа)

[Q] 

не АЙС!!!!
[Профиль]  [ЛС] 

lidi

Шкипер

Пост 16-Май-2012 05:33 (спустя 4 часа)

[Q] 

[Профиль]  [ЛС] 

aleksandrwww

Морской Волк

Пост 16-Май-2012 15:57 (спустя 10 часов)

[Q] 

посмотрим спс

_________________
Пират по призванию
http://www.speedtest.net/result/1954155246.png
[Профиль]  [ЛС] 

igo-go

Корсар

Пост 18-Май-2012 20:53 (спустя 2 дня 4 часа)

[Q] 

а вдруг ничего )
[Профиль]  [ЛС] 

Erzia

Шкипер

Пост 18-Май-2012 21:13 (спустя 19 минут)

[Q] 


_________________
[Профиль]  [ЛС] 

clark

Морской Волк

Пост 18-Май-2012 22:00 (спустя 47 минут)

[Q] 


_________________
Последним смеётся тот, кто стреляет первым.
[Профиль]  [ЛС] 

igo-go

Корсар

Пост 24-Май-2012 20:39 (спустя 5 дней)

[Q] 

посмотрим
[Профиль]  [ЛС] 

_koba

Легенда

Пост 27-Май-2012 14:26 (спустя 2 дня 17 часов)

[Q] 

не фильм а сплошное недоразумение
[Профиль]  [ЛС] 

dadec39

Корсар

Пост 28-Май-2012 22:49 (спустя 1 день 8 часов)

[Q] 

Ничего особенного , на 1 вечер сойдёт.)
[Профиль]  [ЛС] 

Пост 20-Июн-2012 13:09 (спустя 22 дня)

Топик был перенесен из форума Новинки (HD|DVD|BD|TV|SAT|PDTV| - Rips) в форум Российские фильмы

erchine
 

kinstintin

Гроза морей

Пост 23-Июн-2012 15:33 (спустя 25 дней)

[Q] 

Ну что ж, посмотрим и оценим!
автору - спасибо!
[Профиль]  [ЛС] 
Показать сообщения:    
Ответить на тему

Текущее время: Сегодня 16:10

Часовой пояс: GMT + 4



Вы не можете начинать темы
Вы не можете отвечать на сообщения
Вы не можете редактировать свои сообщения
Вы не можете удалять свои сообщения
Вы не можете голосовать в опросах
Вы не можете прикреплять файлы к сообщениям
Вы не можете скачивать файлы

▼ Вниз