ML
     
  Уважаемый Гость!
Вы можете поддержать проект и зарегистрироваться у наших партнеров - онлайн-стратегия MyLands. При регистрации в игре Вы получите код, который сможете активировать после регистрации на pirat.ca и получить 1000 дублонов.

Ваш код:
8b29d0f8cd61fe457e59e7df0aa1fab41a2b88b9
 
     

Дочь баяниста (Екатерина Науменко) [2012 г., мелодрама, SATRip]

Ответить на тему
 
Автор
Сообщение

Пост 15-Май-2012 20:50

[Q] 

UA4HQW

Флибустьер

Дочь баяниста
Год выпуска: 2012
Российская премьера: 13 мая 2012
Производство: Россия
Жанр: мелодрама
Продолжительность: 01:29:21
Режиссер: Екатерина Науменко
В ролях
Ольга Сутулова, Андрей Мерзликин, Анна Потебня, Андрей Саминин
Описание
Музыкант Вася никогда не отличался особым везением. Он один растит дочь, с которой живет в деревне, а постоянной работы у него нет. В эту несладкую жизнь внезапно вмешивается и еще одно печальное обстоятельство: сгорает дом Васи.
Скоро находится выход из сложной ситуации: Вася находит подработку и вместе с музыкантами местной филармонии отправляется на гастроли. Но и тут неудача - вместе с дочкой он опаздывает на автобус. Музыканты вернутся через десять дней, но где и как им жить все это время? Вася решает, что деньги можно заработать игрой на баяне, а ночевать - на вокзале. Так Вася и Света становятся уличными музыкантами.
КиноПоиск
Источник/Качество: SATRip
Формат: AVI
Видео кодек: XviD
Аудио кодек: MP3
Видео: 640x368 (1.74:1), 25 fps, XviD MPEG-4 ~962 kbps avg, 0.16 bit/pixel
Аудио: 48 kHz, MPEG Layer 3, 2 ch, ~128.00 kbps avg
Общее
Полное имя : Doch.bayanista.700.2012.SATRip.avi
Формат : AVI
Формат/Информация : Audio Video Interleave
Размер файла : 700 Мбайт
Продолжительность : 1 ч. 29 м.
Общий поток : 1098 Кбит/сек
Программа кодирования : VirtualDubMod 1.5.4.1 (build 2178/release)
Библиотека кодирования : VirtualDubMod build 2178/release
Видео
Идентификатор : 0
Формат : MPEG-4 Visual
Профиль формата : Advanced [email protected]
Параметр BVOP формата : 1
Параметр QPel формата : Нет
Параметр GMC формата : Без точки перехода
Параметр матрицы формата : Выборочная
Идентификатор кодека : XVID
Идентификатор кодека/Подсказка : XviD
Продолжительность : 1 ч. 29 м.
Битрейт : 962 Кбит/сек
Ширина : 640 пикс.
Высота : 368 пикс.
Соотношение сторон : 16:9
Частота кадров : 25,000 кадр/сек
Цветовое пространство : YUV
Подвыборка цветности : 4:2:0
Битовая глубина : 8 бит
Тип развёртки : Прогрессивная
Метод сжатия : С потерями
Бит/(Пиксели*Кадры) : 0.163
Размер потока : 614 Мбайт (88%)
Библиотека кодирования : XviD 64
Аудио
Идентификатор : 1
Формат : MPEG Audio
Версия формата : Version 1
Профиль формата : Layer 3
Режим : Joint stereo
Расширение режима : MS Stereo
Идентификатор кодека : 55
Идентификатор кодека/Подсказка : MP3
Продолжительность : 1 ч. 29 м.
Вид битрейта : Постоянный
Битрейт : 128 Кбит/сек
Каналы : 2 канала
Частота : 48,0 КГц
Метод сжатия : С потерями
Размер потока : 81,6 Мбайт (12%)
Выравнивание : Соединение по промежуткам
Продолжительность промежутка : 80 мс. (2,00 видеокадра)
Время предзагрузки промежутка : 504 ms
Библиотека кодирования : LAME3.98r
Настройки программы : -m j -V 4 -q 2 -lowpass 17 -b 128
Download / Скачать

Хотите скачать бесплатно? Зарегистрируйтесь на сайте (ссылка на регистрацию). Pirat.ca - самый быстрый торрент трекер в рунете!

Как скачивать  ·   Что такое торрент  ·   Рейтинг и ограничения

Пост 15-Май-2012 21:26 (спустя 35 минут)

Топик был перенесен из форума Наше Кино в форум Новинки (HD|DVD|BD|TV|SAT|PDTV| - Rips)

genkasper
 

shteker

Морской Волк

Пост 15-Май-2012 21:49 (спустя 58 минут)

[Q] 

[Профиль]  [ЛС] 

Voland57

Корсар

Пост 17-Май-2012 20:48 (спустя 1 день 22 часа)

[Q] 

[Профиль]  [ЛС] 

Пост 20-Июн-2012 13:02 (спустя 1 месяц 2 дня)

Топик был перенесен из форума Новинки (HD|DVD|BD|TV|SAT|PDTV| - Rips) в форум Российские фильмы

erchine
 

CHARLI2236

1097

Пост 11-Сен-2013 18:56 (спустя 1 год 3 месяца)

[Q] 

подключусь AntiZip 15

_________________
[Профиль]  [ЛС] 
Показать сообщения:    
Ответить на тему

Текущее время: Сегодня 21:23

Часовой пояс: GMT + 4



Вы не можете начинать темы
Вы не можете отвечать на сообщения
Вы не можете редактировать свои сообщения
Вы не можете удалять свои сообщения
Вы не можете голосовать в опросах
Вы не можете прикреплять файлы к сообщениям
Вы не можете скачивать файлы

▼ Вниз