ML
     
  Уважаемый Гость!
Вы можете поддержать проект и зарегистрироваться у наших партнеров - онлайн-стратегия MyLands. При регистрации в игре Вы получите код, который сможете активировать после регистрации на pirat.ca и получить 1000 дублонов.

Ваш код:
bc31d8aef74c92e19ad67e34a8fa63c3b9b812fb
 
     

Русский треугольник (Алеко Цабадзе) [2007 г., Драма, Триллер, DVDRip]

Ответить на тему
 
Автор
Сообщение

Пост 18-Май-2012 18:27

[Q] 

Amethyst

Русский треугольник Год выпуска: 2007
Российская премьера: 16 мая 2007
Дата выхода DVD: 8 ноября 2007, «Наше Кино»
Производство: Грузия
Жанр: Драма, Триллер
Продолжительность: 01:51:03
Режиссер: Алеко Цабадзе
В ролях
Артем Ткаченко, Константин Хабенский, Петр Миронов, Рамиль Сабитов, Богдан Ступка и др.
Описание
В 1994 году в Чечне убивают беременную жену и дочь учителя словесности. Озверев, он принимает ислам и идет воевать против русских. Учитель издевается над пленными еще более жестоко, чем сами чеченцы: так, одному из соотечественников он выкалывает глаза… В Москве «слепой» киллер убивает кавказцев ударом трости: так он решил мстить за своего брата, который остался после войны без глаз. Странную череду убийств расследует студент юрфака, который проходит практику в милиции.


Источник/Качество: DVDRip
Формат: AVI
Видео кодек: DivX
Аудио кодек: AC3
Видео: DivX 5, 720x384, 1432 kb/s, 25.000 fps
Аудио: AC-3, 6 ch, 448 Кбит/с, 48.0 kHz
Общее
Полное имя : D:\Торенты\Russkiy treugol'nik.2007.DVDRip.[pirat.ca].avi
Формат : AVI
Формат/Информация : Audio Video Interleave
Размер файла : 1,46 Гбайт
Продолжительность : 1 ч. 51 м.
Общий поток : 1887 Кбит/сек
Программа кодирования : VirtualDubMod 1.5.4.1 (build 2178/release)
Библиотека кодирования : VirtualDubMod build 2178/release
Видео
Идентификатор : 0
Формат : MPEG-4 Visual
Профиль формата : Advanced [email protected]
Параметр BVOP формата : 1
Параметр QPel формата : Нет
Параметр GMC формата : Без точки перехода
Параметр матрицы формата : Выборочная
Идентификатор кодека : XVID
Идентификатор кодека/Подсказка : XviD
Продолжительность : 1 ч. 51 м.
Битрейт : 1432 Кбит/сек
Ширина : 720 пикселей
Высота : 384 пикселя
Соотношение сторон : 1,875
Частота кадров : 25,000 кадров/сек
Цветовое пространство : YUV
Субдискретизация насыщенности : 4:2:0
Битовая глубина : 8 бит
Тип развёртки : Прогрессивная
Метод сжатия : С потерями
Бит/(Пиксели*Кадры) : 0.207
Размер потока : 1,11 Гбайт (76%)
Библиотека кодирования : XviD 1.2.1 (UTC 2008-12-04)
Аудио
Идентификатор : 1
Формат : AC-3
Формат/Информация : Audio Coding 3
Расширение режима : CM (complete main)
Идентификатор кодека : 2000
Продолжительность : 1 ч. 51 м.
Вид битрейта : Постоянный
Битрейт : 448 Кбит/сек
Каналы : 6 каналов
Расположение каналов : Front: L C R, Side: L R, LFE
Частота : 48,0 КГц
Битовая глубина : 16 бит
Метод сжатия : С потерями
Размер потока : 356 Мбайт (24%)
Выравнивание : Разделение по промежуткам
Продолжительность промежутка : 96 мс. (2,40 видеокадра)
Время предзагрузки промежутка : 96 мс.
Download / Скачать

Хотите скачать бесплатно? Зарегистрируйтесь на сайте (ссылка на регистрацию). Pirat.ca - самый быстрый торрент трекер в рунете!

Как скачивать  ·   Что такое торрент  ·   Рейтинг и ограничения

Пост 18-Май-2012 18:51 (спустя 24 минуты)

Топик был перенесен из форума Наше Кино в форум Российские фильмы

erchine
 

bruder

Флибустьер

Пост 18-Май-2012 21:36 (спустя 3 часа)

[Q] 

Спасибо, дружище!
25.05.2012.
Нормальный фильм. Я бы даже сказал хороший...

_________________
[Профиль]  [ЛС] 

FeudorM

Корсар

Пост 19-Июн-2012 19:50 (спустя 1 месяц)

[Q] 

[Профиль]  [ЛС] 

ekcnev

Лоцман

Пост 25-Дек-2012 19:08 (спустя 6 месяцев 5 дней)

[Q] 


_________________
[Профиль]  [ЛС] 

MadDon

Штурман

Пост 19-Июн-2013 01:20 (спустя 5 месяцев 24 дня)

[Q] 

Спасибо за фильм!Фильм со смыслом....время потрачено не зря.
Стоит посмотреть
[Профиль]  [ЛС] 
Показать сообщения:    
Ответить на тему

Текущее время: Сегодня 12:03

Часовой пояс: GMT + 4



Вы не можете начинать темы
Вы не можете отвечать на сообщения
Вы не можете редактировать свои сообщения
Вы не можете удалять свои сообщения
Вы не можете голосовать в опросах
Вы не можете прикреплять файлы к сообщениям
Вы не можете скачивать файлы

▼ Вниз