ML
     
  Уважаемый Гость!
Вы можете поддержать проект и зарегистрироваться у наших партнеров - онлайн-стратегия MyLands. При регистрации в игре Вы получите код, который сможете активировать после регистрации на pirat.ca и получить 1000 дублонов.

Ваш код:
bb0cb47ee786a33f751af5a500dd264c9487bfac
 
     

Красавица и Чудовище (Владимир Басов (младший), Ольга Басова) [2012 г., мелодрама, SATRip]

Ответить на тему
 
Автор
Сообщение

Пост 22-Май-2012 08:56

[Q] 

UA4HQW

Флибустьер

Красавица и Чудовище
Год выпуска: 2012
Производство: Россия , Арт-Экспресс
Жанр: мелодрама
Продолжительность: 01:41:32
Режиссер: Владимир Басов (младший), Ольга Басова
В ролях
Эльвира Болгова, Алексей Макаров, Владимир Тебенко, Валерий Иваков, Людмила Гамуряк, Сергей Шеховцов, Татьяна Лянник, Алиса Ярославская, Александр Сотников, Ирина Хруль, Екатерина Лапина, Теймураз Тания, Олег Кузнецов, Владимир Басов (младший).
Описание
Бывшая солистка балета на льду Людмила Спицына наконец выходит замуж за своего давнего партнера по фигурному катанию Вениамина Линецкова. Но прямо из-под венца ее похищает неизвестный человек и привозит на свою виллу.
Сэмпл
Источник/Качество: SATRip
Формат: AVI
Видео кодек: DivX
Аудио кодек: MP3
Видео: 720x400 (1.80:1), 23.976 fps, DivX Codec 4.x ~885 kbps avg, 0.13 bit/pixel
Аудио: 44.100 kHz, MPEG Layer 3, 2 ch, ~128.00 kbps avg
Общее
Полное имя : Красавица_и_Чудовище_700.avi
Формат : AVI
Формат/Информация : Audio Video Interleave
Размер файла : 743 Мбайт
Продолжительность : 1 ч. 41 м.
Общий поток : 1023 Кбит/сек
Программа кодирования : VirtualDubMod 1.5.10.3 (build 2550/release)
Библиотека кодирования : VirtualDubMod build 2550/release
Видео
Идентификатор : 0
Формат : MPEG-4 Visual
Профиль формата : [email protected]
Параметр BVOP формата : Нет
Параметр QPel формата : Нет
Параметр GMC формата : Без точки перехода
Параметр матрицы формата : Default (H.263)
Идентификатор кодека : DIVX
Идентификатор кодека/Информация : Project Mayo
Идентификатор кодека/Подсказка : DivX 4
Продолжительность : 1 ч. 41 м.
Битрейт : 885 Кбит/сек
Ширина : 720 пикс.
Высота : 400 пикс.
Соотношение сторон : 16:9
Частота кадров : 23,976 кадр/сек
Цветовое пространство : YUV
Подвыборка цветности : 4:2:0
Битовая глубина : 8 бит
Тип развёртки : Прогрессивная
Метод сжатия : С потерями
Бит/(Пиксели*Кадры) : 0.128
Размер потока : 643 Мбайт (87%)
Библиотека кодирования : Lavc53.7.0
Аудио
Идентификатор : 1
Формат : MPEG Audio
Версия формата : Version 1
Профиль формата : Layer 3
Идентификатор кодека : 55
Идентификатор кодека/Подсказка : MP3
Продолжительность : 1 ч. 41 м.
Вид битрейта : Постоянный
Битрейт : 128 Кбит/сек
Каналы : 2 канала
Частота : 44,1 КГц
Метод сжатия : С потерями
Задержка видео : 20 мс.
Размер потока : 93,0 Мбайт (13%)
Выравнивание : Разделение по промежуткам
Продолжительность промежутка : 42 мс. (1,00 видеокадр)
Время предзагрузки промежутка : 500 ms
Библиотека кодирования : LAME3.98.4
Download / Скачать

Хотите скачать бесплатно? Зарегистрируйтесь на сайте (ссылка на регистрацию). Pirat.ca - самый быстрый торрент трекер в рунете!

Как скачивать  ·   Что такое торрент  ·   Рейтинг и ограничения



Последний раз редактировалось: UA4HQW (2012-05-22 21:27), всего редактировалось 2 раз(а)

Пост 22-Май-2012 21:33 (спустя 12 часов)

Топик был перенесен из форума Наше Кино в форум Новинки (HD|DVD|BD|TV|SAT|PDTV| - Rips)

Linnan
 

anonymoys

Гроза морей

901

Пост 23-Май-2012 21:10 (спустя 1 день 12 часов)

[Q] 

[Профиль]  [ЛС] 

vladj

Лоцман

Пост 03-Июн-2012 15:18 (спустя 10 дней)

[Q] 

Спасибо, а фильм оценим.
[Профиль]  [ЛС] 

Пост 26-Июн-2012 09:32 (спустя 22 дня)

Топик был перенесен из форума Новинки (HD|DVD|BD|TV|SAT|PDTV| - Rips) в форум Российские фильмы

ara1205
 
Показать сообщения:    
Ответить на тему

Текущее время: Сегодня 02:23

Часовой пояс: GMT + 4



Вы не можете начинать темы
Вы не можете отвечать на сообщения
Вы не можете редактировать свои сообщения
Вы не можете удалять свои сообщения
Вы не можете голосовать в опросах
Вы не можете прикреплять файлы к сообщениям
Вы не можете скачивать файлы

▼ Вниз