ML
     
  Уважаемый Гость!
Вы можете поддержать проект и зарегистрироваться у наших партнеров - онлайн-стратегия MyLands. При регистрации в игре Вы получите код, который сможете активировать после регистрации на pirat.ca и получить 1000 дублонов.

Ваш код:
21acd5966619d49ad0b90c3305467b4646cc11a8
 
     

Шпион (Алексей Андрианов) [2012 г., триллер, детектив, приключения, HDRip]

Ответить на тему
 
Автор
Сообщение

Пост 22-Май-2012 20:56

[Q] 

Amethyst

Шпион «Остановить неизбежное»
Год выпуска: 2012
Российская премьера: 5 апреля 2012, «Централ Партнершип»
Дата выхода DVD: 17 мая 2012, «Флагман-Трейд»
Производство: Россия / Канал "Россия", Студия Тритэ
Жанр: триллер, детектив, приключения
Продолжительность: 01:49:33
Режиссер: Алексей Андрианов
В ролях
ОДанила Козловский, Фёдор Бондарчук, Владимир Епифанцев, Сергей Газаров, Виктор Вержбицкий, Виктория Толстоганова, Анна Чиповская, Алексей Горбунов, Алексей Гаврилов, Екатерина Мельник
Описание
Весна 1941 года. В центре Москвы разворачивается напряжённый поединок двух разведок. Цель тайной операции Гитлера - дезинформировать Сталина о планах нападения Германии на Советский Союз. Старший майор Октябрьский и лейтенант Дорин против гения фашистского шпионажа. Схватка на фоне большой истории, освещенной заревом грядущей войны.


Источник/Качество: HDRip
Формат: AVI
Видео кодек: XviD
Аудио кодек: AC3
Видео: XviD, 720x304, 1455 kb/s, 23.976 fps
Аудио: AC-3, 6 ch, 448 Кбит/с, 48.0 kHz
Общее
Полное имя : D:\Торенты\Shpion.2012.HDRip.[pirat.ca].avi
Формат : AVI
Формат/Информация : Audio Video Interleave
Размер файла : 1,46 Гбайт
Продолжительность : 1 ч. 49 м.
Общий поток : 1912 Кбит/сек
Название фильма : SShpion.2012.HDRip.[pirat.ca]
Режиссёр : Алексей Андрианов
Программа кодирования : VirtualDubMod 1.5.10.3 | www.virtualdub-fr.org || (build 2550/release)
Видео
Идентификатор : 0
Формат : MPEG-4 Visual
Профиль формата : Advanced [email protected]
Параметр BVOP формата : 2
Параметр QPel формата : Нет
Параметр GMC формата : Без точки перехода
Параметр матрицы формата : Выборочная
Идентификатор кодека : XVID
Идентификатор кодека/Подсказка : XviD
Продолжительность : 1 ч. 49 м.
Битрейт : 1455 Кбит/сек
Ширина : 720 пикселей
Высота : 304 пикселя
Соотношение сторон : 2,35:1
Частота кадров : 23,976 кадра/сек
Цветовое пространство : YUV
Субдискретизация насыщенности : 4:2:0
Битовая глубина : 8 бит
Тип развёртки : Прогрессивная
Метод сжатия : С потерями
Бит/(Пиксели*Кадры) : 0.277
Размер потока : 1,11 Гбайт (76%)
Библиотека кодирования : XviD 1.2.1 (UTC 2008-12-04)
Аудио
Идентификатор : 1
Формат : AC-3
Формат/Информация : Audio Coding 3
Расширение режима : CM (complete main)
Идентификатор кодека : 2000
Продолжительность : 1 ч. 49 м.
Вид битрейта : Постоянный
Битрейт : 448 Кбит/сек
Каналы : 6 каналов
Расположение каналов : Front: L C R, Side: L R, LFE
Частота : 48,0 КГц
Битовая глубина : 16 бит
Метод сжатия : С потерями
Размер потока : 351 Мбайт (23%)
Выравнивание : Разделение по промежуткам
Продолжительность промежутка : 42 мс. (1,00 видеокадр)
Время предзагрузки промежутка : 500 мс.
Download / Скачать

Хотите скачать бесплатно? Зарегистрируйтесь на сайте (ссылка на регистрацию). Pirat.ca - самый быстрый торрент трекер в рунете!

Как скачивать  ·   Что такое торрент  ·   Рейтинг и ограничения



Последний раз редактировалось: Amethyst (2013-01-22 21:53), всего редактировалось 1 раз

Пост 22-Май-2012 21:17 (спустя 21 минута)

Топик был перенесен из форума Наше Кино в форум Новинки (HD|DVD|BD|TV|SAT|PDTV| - Rips)

zyyx
 

Maxim54rus

Корсар

40

Пост 22-Май-2012 21:51 (спустя 55 минут)

[Q] 

[Профиль]  [ЛС] 

Steel15

Морской Волк

Пост 22-Май-2012 21:55 (спустя 4 минуты)

[Q] 

[Профиль]  [ЛС] 

caseit

Лоцман

Пост 22-Май-2012 22:18 (спустя 22 минуты)

[Q] 

[Профиль]  [ЛС] 

Filimonia

Корсар

Пост 22-Май-2012 23:04 (спустя 46 минут)

[Q] 

[Профиль]  [ЛС] 

lis777

Корсар

Пост 23-Май-2012 13:23 (спустя 14 часов)

[Q] 

[Профиль]  [ЛС] 

anonymoys

Гроза морей

901

Пост 23-Май-2012 21:07 (спустя 7 часов)

[Q] 

[Профиль]  [ЛС] 

jei544

Лоцман

Пост 23-Май-2012 23:50 (спустя 2 часа 43 минуты)

[Q] 

[Профиль]  [ЛС] 

svarog-kiev

Лоцман

Пост 24-Май-2012 15:17 (спустя 15 часов)

[Q] 

На один разок (
[Профиль]  [ЛС] 

Пост 26-Июн-2012 09:30 (спустя 1 месяц 1 день)

Топик был перенесен из форума Новинки (HD|DVD|BD|TV|SAT|PDTV| - Rips) в форум Российские фильмы

ara1205
 

arsi

Морской Волк

Пост 22-Ноя-2012 17:38 (спустя 5 месяцев 29 дней)

[Q] 

[Профиль]  [ЛС] 

exrei

Шкипер

161

Пост 29-Ноя-2012 22:31 (спустя 7 дней)

[Q] 

Фильм супер актеры молодцы качайте и смотрите это не о политике это приключения поэтому немного фантазии не мешает.

_________________
[Профиль]  [ЛС] 

Billy Bones

Шкипер

Пост 14-Янв-2013 22:38 (спустя 1 месяц 15 дней)

[Q] 

нудноват
[Профиль]  [ЛС] 
Показать сообщения:    
Ответить на тему

Текущее время: Сегодня 23:19

Часовой пояс: GMT + 4



Вы не можете начинать темы
Вы не можете отвечать на сообщения
Вы не можете редактировать свои сообщения
Вы не можете удалять свои сообщения
Вы не можете голосовать в опросах
Вы не можете прикреплять файлы к сообщениям
Вы не можете скачивать файлы

▼ Вниз