ML
     
  Уважаемый Гость!
Вы можете поддержать проект и зарегистрироваться у наших партнеров - онлайн-стратегия MyLands. При регистрации в игре Вы получите код, который сможете активировать после регистрации на pirat.ca и получить 1000 дублонов.

Ваш код:
93dbf9fbdfa06c41d3b5a2c3921149ba36168c41
 
     

Олигарх (Павел Лунгин) [2002 г., драма, криминал, DVDRip]

Ответить на тему
 
Автор
Сообщение

Пост 23-Май-2012 08:02

[Q] 

avzaytsev

Морской Волк

Олигарх
Год выпуска: 2002
Мировая премьера: 2 августа 2002
Российская премьера: 19 сентября 2002
Производство: Россия, Германия, Франция
Жанр: драма, криминал
Продолжительность: 02:02:46
Субтитры: отсутствуют
Режиссер: Павел Лунгин
В ролях
Владимир Машков, Мария Миронова, Андрей Краско, Леван Учанейшвили, Михаил Вассербаум, Сергей Юшкевич, Александр Самойленко, Наталья Коляканова, Александр Балуев, Владимир Гусев, Владимир Стеклов, Марат Башаров, Владимир Сальников, Владимир Головин, Анна Чурина
Описание
История жизни. Россия. Последние два десятилетия. Время перемен, необратимо изменившее страну и всех нас. Академики обнищали, младшие научные сотрудники обрели невероятные богатства и власть, стали всемогущими олигархами…
История любви. Он был готов положить весь мир к ее ногам. И мог себе это позволить…
История денег. Деньги заработать можно. Даже большие деньги. Но как потом остаться в живых?..
История успеха. За все надо платить. История большого бизнеса в России — это история людей, которые всего достигли. Но они дорого заплатили за свой успех. Кто-то — дружбой, кто-то — любовью, кто-то — собственной жизнью…
Основные события и главные герои фильма не вымышлены. Имена изменены. Некоторые все еще живы…
IMDB , КиноПоиск
Источник/Качество: DVDRip
Формат: AVI
Видео кодек: XviD
Аудио кодек: AC3
Видео: 704x368 (1.91:1), 25 fps, XviD MPEG-4 ~1164 kbps avg, 0.18 bit/pixel
Аудио: 48 kHz, AC3 Dolby Digital, 3/2 (L,C,R,l,r) + LFE ch, ~448 kbps
Общее
Полное имя : Олигарх.avi
Формат : AVI
Формат/Информация : Audio Video Interleave
Размер файла : 1,39 Гбайт
Продолжительность : 2 ч. 2 м.
Общий поток : 1622 Кбит/сек
Программа кодирования : VirtualDubMod 1.5.10.2 (build 2540/release)
Библиотека кодирования : VirtualDubMod build 2540/release
Видео
Идентификатор : 0
Формат : MPEG-4 Visual
Профиль формата : Advanced [email protected]
Параметр BVOP формата : 2
Параметр QPel формата : Нет
Параметр GMC формата : Без точки перехода
Параметр матрицы формата : Default (MPEG)
Режим смешивания : Сжатый битовый поток
Идентификатор кодека : DX50
Идентификатор кодека/Подсказка : DivX 5
Продолжительность : 2 ч. 2 м.
Битрейт : 1164 Кбит/сек
Ширина : 704 пикселя
Высота : 368 пикселей
Соотношение сторон : 1,913
Частота кадров : 25,000 кадров/сек
Цветовое пространство : YUV
Субдискретизация насыщенности : 4:2:0
Битовая глубина : 8 бит
Тип развёртки : Прогрессивная
Метод сжатия : С потерями
Бит/(Пиксели*Кадры) : 0.180
Размер потока : 1022 Мбайт (72%)
Библиотека кодирования : XviD 1.2.0.dev47 (UTC 2006-11-01)
Аудио
Идентификатор : 1
Формат : AC-3
Формат/Информация : Audio Coding 3
Расширение режима : CM (complete main)
Параметр Endianness формата : Big
Идентификатор кодека : 2000
Продолжительность : 2 ч. 2 м.
Вид битрейта : Постоянный
Битрейт : 448 Кбит/сек
Каналы : 6 каналов
Расположение каналов : Front: L C R, Side: L R, LFE
Частота : 48,0 КГц
Битовая глубина : 16 бит
Метод сжатия : С потерями
Размер потока : 393 Мбайт (28%)
Выравнивание : Разделение по промежуткам
Продолжительность промежутка : 40 мс. (1,00 видеокадр)
Время предзагрузки промежутка : 500 мс.
Фильм снят по мотивам романа Юлия Дубова «Большая пайка»
Download / Скачать

Хотите скачать бесплатно? Зарегистрируйтесь на сайте (ссылка на регистрацию). Pirat.ca - самый быстрый торрент трекер в рунете!

Как скачивать  ·   Что такое торрент  ·   Рейтинг и ограничения

Пост 23-Май-2012 08:13 (спустя 11 минут)

Топик был перенесен из форума Наше Кино в форум Российские фильмы

erchine
 

antis1962

Корсар

Пост 24-Авг-2012 00:02 (спустя 3 месяца)

[Q] 

Спасибо за фильм...
[Профиль]  [ЛС] 

spyd

Лоцман

Пост 15-Дек-2012 22:03 (спустя 3 месяца 22 дня)

[Q] 

Большое спасибо!!!
[Профиль]  [ЛС] 

Су-34

Гроза морей

10390

Пост 16-Дек-2012 17:22 (спустя 19 часов)

[Q] 

[Профиль]  [ЛС] 

Боцман

1289

Пост 29-Авг-2013 09:58 (спустя 8 месяцев 12 дней)

[Q] 

Скорость как у черепахи Эй, вернитесь на раздачу... Раздавать будем или как?

_________________
не верь не бойся не проси не плачь...
[Профиль]  [ЛС] 

viktor41

Шкипер

Пост 15-Окт-2013 19:14 (спустя 1 месяц 17 дней)

[Q] 

Сильная картина . Супер! Спасибо!!!
[Профиль]  [ЛС] 

vlad732007

Корсар

Пост 26-Май-2014 18:57 (спустя 7 месяцев 10 дней)

[Q] 

фильм норм, есть что посмотреть, над чем подумать.... Раздающему респект!
[Профиль]  [ЛС] 
Показать сообщения:    
Ответить на тему

Текущее время: Сегодня 20:21

Часовой пояс: GMT + 4



Вы не можете начинать темы
Вы не можете отвечать на сообщения
Вы не можете редактировать свои сообщения
Вы не можете удалять свои сообщения
Вы не можете голосовать в опросах
Вы не можете прикреплять файлы к сообщениям
Вы не можете скачивать файлы

▼ Вниз