ML
     
  Уважаемый Гость!
Вы можете поддержать проект и зарегистрироваться у наших партнеров - онлайн-стратегия MyLands. При регистрации в игре Вы получите код, который сможете активировать после регистрации на pirat.ca и получить 1000 дублонов.

Ваш код:
4399ab8611ee7f8a22949d2ee7634160dd2db7e0
 
     

Ветер северный (Игорь Москвитин) [2011 г., драма, DVDRip]

Ответить на тему
 
Автор
Сообщение

Пост 24-Май-2012 09:20

[Q] 

UA4HQW

Флибустьер

Ветер северный
Год выпуска: 2011
Производство: Россия, Триикс Медиа
Жанр: драма
Продолжительность: 01:33:40
Режиссер: Игорь Москвитин
В ролях
Сергей Горобченко, Карина Разумовская, Константин Демидов (II), Светлана Бакулина, Елизавета Александрова, Дарья Циберкина, Владимир Лесун, Роман Павлушев, Татьяна Ткач
Описание
Выпускница музыкального училища, дочка контр-адмирала, Катя Андреева выходит замуж за капитана-лейтенанта Василия Касимова. Во время свадьбы на свадьбе появляется неизвестный капитан и со словами «Это тебе за Летунову» бьёт Василия в морду. Катя в шоке. Всё, что она смогла узнать от мужа, что Летунова, соседка этого капитана Прозорова в гарнизоне, где служил Василий, и он, скорее всего, её приревновал. Вместо свадебного путешествия Катя едет в Озёрный, что бы выяснить, что же, всё-таки, произошло между её мужем и Летуновой. Сбежав из поезда от мужа, Катя тайно проникает на закрытую территорию военного гарнизона. Там она узнает, что Татьяна Летунова жестоко избита неизвестными и находится в коме, и что она ждала от Василия ребёнка. У Летуновой есть маленький сынишка Санька, и Катя решает остаться в гарнизоне, что бы присматривать за мальчиком, а заодно помочь организовать для детей гарнизона Новогодний праздник, который не успела организовать Татьяна. Позже в Озёрном погибает матрос, знакомый Летуновой, а вслед за ним и его друг. Выясняется, что Василий причастен к этим страшным событиям и теперь опасность угрожает и Кате и Саньке и Прозорову, к которому Катя всё больше привязывается, несмотря на их постоянные ссоры.
Сэмпл , КиноПоиск
Источник/Качество: DVDRip
Формат: AVI
Видео кодек: XviD
Аудио кодек: AC3
Видео: 720x384 (1.88:1), 25 fps, XviD build 50 ~1769 kbps avg, 0.26 bit/pixel
Аудио: 48 kHz, AC3 Dolby Digital, 3/2 (L,C,R,l,r) + LFE ch, ~448.00 kbps avg
Общее
Полное имя : Veter.Severnay.2011.O.DVDRip.avi
Формат : AVI
Формат/Информация : Audio Video Interleave
Размер файла : 1,46 Гбайт
Продолжительность : 1 ч. 33 м.
Общий поток : 2228 Кбит/сек
Программа кодирования : VirtualDubMod 1.5.10.2 (build 2540/release)
Библиотека кодирования : VirtualDubMod build 2540/release
Видео
Идентификатор : 0
Формат : MPEG-4 Visual
Профиль формата : Advanced [email protected]
Параметр BVOP формата : 2
Параметр QPel формата : Нет
Параметр GMC формата : Без точки перехода
Параметр матрицы формата : Выборочная
Идентификатор кодека : XVID
Идентификатор кодека/Подсказка : XviD
Продолжительность : 1 ч. 33 м.
Битрейт : 1770 Кбит/сек
Ширина : 720 пикс.
Высота : 384 пикс.
Соотношение сторон : 1,875
Частота кадров : 25,000 кадр/сек
Цветовое пространство : YUV
Подвыборка цветности : 4:2:0
Битовая глубина : 8 бит
Тип развёртки : Прогрессивная
Метод сжатия : С потерями
Бит/(Пиксели*Кадры) : 0.256
Размер потока : 1,16 Гбайт (79%)
Библиотека кодирования : XviD 1.2.1 (UTC 2008-12-04)
Аудио
Идентификатор : 1
Формат : AC-3
Формат/Информация : Audio Coding 3
Расширение режима : CM (complete main)
Идентификатор кодека : 2000
Продолжительность : 1 ч. 33 м.
Вид битрейта : Постоянный
Битрейт : 448 Кбит/сек
Каналы : 6 каналов
Расположение каналов : Front: L C R, Side: L R, LFE
Частота : 48,0 КГц
Битовая глубина : 16 бит
Метод сжатия : С потерями
Размер потока : 300 Мбайт (20%)
Выравнивание : Разделение по промежуткам
Продолжительность промежутка : 40 мс. (1,00 видеокадр)
Время предзагрузки промежутка : 500 ms
Download / Скачать

Хотите скачать бесплатно? Зарегистрируйтесь на сайте (ссылка на регистрацию). Pirat.ca - самый быстрый торрент трекер в рунете!

Как скачивать  ·   Что такое торрент  ·   Рейтинг и ограничения

Пост 24-Май-2012 11:04 (спустя 1 час 44 минуты)

Топик был перенесен из форума Наше Кино в форум Российские фильмы

Linnan
 

lis777

Корсар

Пост 24-Май-2012 17:25 (спустя 8 часов)

[Q] 

[Профиль]  [ЛС] 

okorm

889

Пост 04-Май-2013 17:33 (спустя 11 месяцев 11 дней)

[Q] 

[Профиль]  [ЛС] 
Показать сообщения:    
Ответить на тему

Текущее время: Сегодня 10:43

Часовой пояс: GMT + 4



Вы не можете начинать темы
Вы не можете отвечать на сообщения
Вы не можете редактировать свои сообщения
Вы не можете удалять свои сообщения
Вы не можете голосовать в опросах
Вы не можете прикреплять файлы к сообщениям
Вы не можете скачивать файлы

▼ Вниз