ML
     
  Уважаемый Гость!
Вы можете поддержать проект и зарегистрироваться у наших партнеров - онлайн-стратегия MyLands. При регистрации в игре Вы получите код, который сможете активировать после регистрации на pirat.ca и получить 1000 дублонов.

Ваш код:
59354507ba913a0948d1a8f2e30f2e04c4cd7b9b
 
     

День хомячка (Виталий Мухаметзянов) [2003 г., Комедия, DVDRip]

Ответить на тему
 
Автор
Сообщение

Пост 24-Май-2012 11:08

[Q] 

megamastor

День хомячка
Год выпуска: 2003
Российская премьера: 25 декабря 2003
Производство: Киностудия «Башкортостан»
Жанр: Комедия
Продолжительность: 01:48:34
Режиссер: Виталий Мухаметзянов
В ролях
Виктор Проскурин, Наталья Щербакова, Григорий Малыгин, Дмитрий Никулин, Петр Винс, Ильдар Саитов, Алексей Якупов, Салават Нурисламов, Артем Яковлев, Алексей Ходорев, Светлана Акимова, Азамат Гафаров
Описание
Жизнь трех товарищей - Степаныча, Сереги и Коляна превращается в сказку. Просыпаются однажды герои в роскошном гостиничном номере, ничего не помнят, начинают денег искать опохмелиться, а находят саквояж с миллионом долларов... Вместе с деньгами врываются события, причиной которых они и оказались. Один из "непросыхающих" героев умудряется стать представителем власти в округе, другой выдвигается на нобелевскую премию, третьему вручают медаль непонятно за что. Только вспомнить бы, что начудили, и что им за это будет. А ничего! Только у них с каждым новым днем сумма зеленых уменьшается, а количество желаний неудержимо возрастает...
КиноПоиск
Источник/Качество: DVDRip
Формат: AVI
Видео кодек: DivX
Аудио кодек: MP3
Видео: 760 Кбит/с; 544*320(16:9); 23,976 кадра/сек; DivX
Аудио: 128 Кбит/с; 48 Кгц; MP3; 2 канала joint stereo
Общее
Формат : AVI
Формат/Информация : Audio Video Interleave
Размер файла : 701 Мбайт
Продолжительность : 1 ч. 48 м.
Режим общего битрейта : Переменный
Общий поток : 902 Кбит/сек
Название фильма : Day Of Homyachok
Режиссёр : BLF
Программа кодирования : VirtualDubMod 1.5.10.1 (build 2366/release)
Видео
Идентификатор : 0
Формат : MPEG-4 Visual
Параметр BVOP формата : 1
Параметр QPel формата : Нет
Параметр GMC формата : Без точки перехода
Параметр матрицы формата : Default (H.263)
Режим смешивания : Сжатый битовый поток
Идентификатор кодека : DX50
Идентификатор кодека/Подсказка : DivX 5
Продолжительность : 1 ч. 48 м.
Битрейт : 760 Кбит/сек
Ширина : 544 пикселя
Высота : 320 пикселей
Соотношение сторон : 16:9
Частота кадров : 23,976 кадра/сек
Цветовое пространство : YUV
Субдискретизация насыщенности : 4:2:0
Битовая глубина : 8 бит
Тип развёртки : Прогрессивная
Метод сжатия : С потерями
Бит/(Пиксели*Кадры) : 0.182
Размер потока : 591 Мбайт (84%)
Библиотека кодирования : DivX 5.1.1 (Maupiti) (UTC 2003-11-19)
Аудио
Идентификатор : 1
Формат : MPEG Audio
Версия формата : Version 1
Профиль формата : Layer 3
Режим : Joint stereo
Расширение режима : MS Stereo
Идентификатор кодека : 55
Идентификатор кодека/Подсказка : MP3
Продолжительность : 1 ч. 48 м.
Вид битрейта : Переменный
Битрейт : 128 Кбит/сек
Каналы : 2 канала
Частота : 48,0 КГц
Метод сжатия : С потерями
Размер потока : 100 Мбайт (14%)
Выравнивание : Соединение по промежуткам
Продолжительность промежутка : 24 мс. (0,58 видеокадр)
Время предзагрузки промежутка : 469 мс.
Download / Скачать

Хотите скачать бесплатно? Зарегистрируйтесь на сайте (ссылка на регистрацию). Pirat.ca - самый быстрый торрент трекер в рунете!

Как скачивать  ·   Что такое торрент  ·   Рейтинг и ограничения



Последний раз редактировалось: megamastor (2012-05-24 12:48), всего редактировалось 1 раз

Пост 24-Май-2012 12:54 (спустя 1 час 46 минут)

Топик был перенесен из форума Наше Кино в форум Российские фильмы

erchine
 

megamastor ®

2827

Пост 24-Май-2012 12:59 (спустя 1 час 51 минута)

[Q] 

Полная версия тут
День Хомячка (Виталий Мухаметзянов) [2003 г., Комедия, DVDRip] [Полная версия (4 серии из 4)]
Но лично мне эта больше нравится...
[Профиль]  [ЛС] 

megamastor ®

2827

Пост 10-Июн-2012 23:08 (спустя 17 дней)

[Q] 

Вены дорог, дороги вен - размажут нас по кирпичности стен....
Lumen - Сид и Нэнси
Саунд трек из фильма...
[Профиль]  [ЛС] 

олег кормщиков

Лоцман

Пост 17-Июн-2012 16:15 (спустя 6 дней)

[Q] 

Спасибо!
[Профиль]  [ЛС] 
Показать сообщения:    
Ответить на тему

Текущее время: Сегодня 16:11

Часовой пояс: GMT + 4



Вы не можете начинать темы
Вы не можете отвечать на сообщения
Вы не можете редактировать свои сообщения
Вы не можете удалять свои сообщения
Вы не можете голосовать в опросах
Вы не можете прикреплять файлы к сообщениям
Вы не можете скачивать файлы

▼ Вниз