ML
     
  Уважаемый Гость!
Вы можете поддержать проект и зарегистрироваться у наших партнеров - онлайн-стратегия MyLands. При регистрации в игре Вы получите код, который сможете активировать после регистрации на pirat.ca и получить 1000 дублонов.

Ваш код:
bb0cb47ee786a33f751af5a500dd264c9487bfac
 
     

Белый тигр (Карен Шахназаров) [2012 г., военный, DVDRip](лицензия)

Ответить на тему
 
Автор
Сообщение

Пост 26-Май-2012 09:04

[Q] 

dimkoba

Белый тигр
Год выпуска: 2012
Российская премьера: 3 мая 2012, «Каропрокат»
Дата выхода DVD: 31 мая 2012, «Союз-Видео»
Дата выхода Blu-Ray: 31 мая 2012, «Союз-Видео»
Производство: Россия / Первый канал, Мосфильм
Жанр: военный
Продолжительность: 01:44:06
Субтитры: отсутствуют
Режиссер: Карен Шахназаров
В ролях
Виталий Кищенко, Алексей Вертков, Владимир Ильин, Александр Вахов, Виталий Дорджиев, Валерий Гришко, Кристиан Редль, Карл Кранцковски, Леонид Орлов, Дмитрий Быковский-Ромашов
Описание
Вторая Мировая война подходит к концу. Тяжелые затяжные бои изматывают обе стороны. Но чем увереннее наступают советские войска, тем чаще на полях сражений появляется огромным неуязвимый немецкий танк «Белый Тигр». Внезапно возникает он в дыму сражений, безжалостно расстреливает своих противников и неожиданно исчезает. Советское командование решает для борьбы с «Белым Тигром» создать особый танк — специальную модель Т-34.Сэмпл , КиноПоискИсточник/Качество: DVDRip
Формат: AVI
Видео кодек: XviD
Аудио кодек: MP3
Видео: 640x352 , 25.000 fps, XviD, 799 kb/s,
Аудио: MP3, 128 kb/s, 48.0 KHz, 2 ch
Полное имя : D:\загрузка\Belyj.tigr.[Pirat.ca].avi
Формат : AVI
Формат/Информация : Audio Video Interleave
Размер файла : 698 Мбайт
Продолжительность : 1 ч. 44 м.
Режим общего битрейта : Переменный
Общий поток : 937 Кбит/сек
Программа кодирования : VirtualDubMod 1.5.10.2 (build 2540/release)
Библиотека кодирования : VirtualDubMod build 2540/release
Видео
Идентификатор : 0
Формат : MPEG-4 Visual
Профиль формата : Advanced [email protected]
Параметр BVOP формата : 2
Параметр QPel формата : Нет
Параметр GMC формата : Без точки перехода
Параметр матрицы формата : Выборочная
Идентификатор кодека : XVID
Идентификатор кодека/Подсказка : XviD
Продолжительность : 1 ч. 44 м.
Битрейт : 799 Кбит/сек
Ширина : 640 пикселей
Высота : 352 пикселя
Соотношение сторон : 16:9
Частота кадров : 25,000 кадров/сек
Цветовое пространство : YUV
Субдискретизация насыщенности : 4:2:0
Битовая глубина : 8 бит
Тип развёртки : Прогрессивная
Метод сжатия : С потерями
Бит/(Пиксели*Кадры) : 0.142
Размер потока : 595 Мбайт (85%)
Библиотека кодирования : XviD 1.2.1 (UTC 2008-12-04)
Аудио
Идентификатор : 1
Формат : MPEG Audio
Версия формата : Version 1
Профиль формата : Layer 3
Режим : Joint stereo
Расширение режима : MS Stereo
Идентификатор кодека : 55
Идентификатор кодека/Подсказка : MP3
Продолжительность : 1 ч. 44 м.
Вид битрейта : Переменный
Битрейт : 128 Кбит/сек
Каналы : 2 канала
Частота : 48,0 КГц
Метод сжатия : С потерями
Размер потока : 95,3 Мбайт (14%)
Выравнивание : Соединение по промежуткам
Продолжительность промежутка : 40 мс. (1,00 видеокадр)
Время предзагрузки промежутка : 504 мс.
Библиотека кодирования : LAME3.99.3
Download / Скачать

Хотите скачать бесплатно? Зарегистрируйтесь на сайте (ссылка на регистрацию). Pirat.ca - самый быстрый торрент трекер в рунете!

Как скачивать  ·   Что такое торрент  ·   Рейтинг и ограничения

Пост 26-Май-2012 09:24 (спустя 19 минут)

Топик был перенесен из форума Наше Кино в форум Новинки (HD|DVD|BD|TV|SAT|PDTV| - Rips)

erchine
 

TheSwan

Корсар

Пост 26-Май-2012 11:10 (спустя 2 часа 6 минут)

[Q] 

[Профиль]  [ЛС] 

italiano711

Гроза морей

Пост 26-Май-2012 12:09 (спустя 59 минут)

[Q] 

[Профиль]  [ЛС] 

kisu

Гроза морей

Пост 26-Май-2012 17:35 (спустя 5 часов)

[Q] 

это типа фентези какое-то?
[Профиль]  [ЛС] 

sanchela9999

Корсар

Пост 27-Май-2012 01:24 (спустя 7 часов)

[Q] 

kisu, О_о ты дал!!! bk Люблю такие фитьмы!!!Аффтору зачёт ,кнопочку нажал)
[Профиль]  [ЛС] 

sanchela9999

Корсар

Пост 27-Май-2012 01:25 (спустя 41 секунда)

[Q] 

kisu, О_о ты дал!!! bk Люблю такие фильмы!!!Аффтору зачёт ,кнопочку нажал)
[Профиль]  [ЛС] 

grem57

Шкипер

Пост 27-Май-2012 22:55 (спустя 21 час)

[Q] 

А ЧТО СО СКОРОСТЬЮ, ДРУЗЬЯ-ТОВАРИЩИ??!!!
[Профиль]  [ЛС] 

serzh7

Лоцман

Пост 28-Май-2012 12:24 (спустя 13 часов)

[Q] 

даа. я ожидал большего.
[Профиль]  [ЛС] 

Валерий001

Шкипер

8

Пост 30-Май-2012 17:52 (спустя 2 дня 5 часов)

[Q] 

фильм интересный, жаль историей не пахнет
[Профиль]  [ЛС] 

Selector

Шкипер

Пост 04-Июн-2012 01:38 (спустя 4 дня)

[Q] 

[Профиль]  [ЛС] 

Пост 14-Июл-2012 15:07 (спустя 1 месяц 10 дней)

Топик был перенесен из форума Новинки (HD|DVD|BD|TV|SAT|PDTV| - Rips) в форум Российские фильмы

erchine
 
Показать сообщения:    
Ответить на тему

Текущее время: Сегодня 02:18

Часовой пояс: GMT + 4



Вы не можете начинать темы
Вы не можете отвечать на сообщения
Вы не можете редактировать свои сообщения
Вы не можете удалять свои сообщения
Вы не можете голосовать в опросах
Вы не можете прикреплять файлы к сообщениям
Вы не можете скачивать файлы

▼ Вниз