ML
     
  Уважаемый Гость!
Вы можете поддержать проект и зарегистрироваться у наших партнеров - онлайн-стратегия MyLands. При регистрации в игре Вы получите код, который сможете активировать после регистрации на pirat.ca и получить 1000 дублонов.

Ваш код:
8b29d0f8cd61fe457e59e7df0aa1fab41a2b88b9
 
     

Одно звено (Алексей Горлов) [2010 г., драма, SATRip]

Ответить на тему
 
Автор
Сообщение

Пост 26-Май-2012 11:40

[Q] 

UA4HQW

Флибустьер

Одно звено
Год выпуска: 2010
Производство: Казахстан
Жанр: драма
Продолжительность: 01:13:48
Режиссер: Алексей Горлов
В ролях
Дмитрий Скирта, Владимир Толоконников, Олег Селезнев, Олег Полторатских, Андрей Панин, Маржан Козыбаева, Меруерт Утекешева, Александр Зубов, Оксана Бойченко, Азиз Бейшеналиев
Описание
История повествует о четырех браконьерах, которые решают свои жизненные проблемы путем поимки и продажи редкостных животных. И у каждого героя свои собственные мотивы - одному нужно расплатиться с долгами, второму, для того, что бы осуществить собственную мечту, третий зависим от азартных игр, а четвертому необходимо достроить дом и оплатить операцию дочери.
Источник/Качество: SATRip
Формат: AVI
Видео кодек: XviD
Аудио кодек: MP3
Видео: 704x384 (1.83:1), 25 fps, XviD MPEG-4 ~2448 kbps avg, 0.36 bit/pixel
Аудио: 48 kHz, MPEG Layer 3, 2 ch, ~192.00 kbps avg
Общее
Полное имя : Одно звено.avi
Формат : AVI
Формат/Информация : Audio Video Interleave
Размер файла : 1,37 Гбайт
Продолжительность : 1 ч. 13 м.
Общий поток : 2651 Кбит/сек
Библиотека кодирования : VirtualDub build 32842/release
Видео
Идентификатор : 0
Формат : MPEG-4 Visual
Профиль формата : Advanced [email protected]
Параметр BVOP формата : 2
Параметр QPel формата : Нет
Параметр GMC формата : Без точки перехода
Параметр матрицы формата : Default (H.263)
Режим смешивания : Сжатый битовый поток
Идентификатор кодека : XVID
Идентификатор кодека/Подсказка : XviD
Продолжительность : 1 ч. 13 м.
Битрейт : 2449 Кбит/сек
Ширина : 704 пикс.
Высота : 384 пикс.
Соотношение сторон : 16:9
Частота кадров : 25,000 кадр/сек
Цветовое пространство : YUV
Подвыборка цветности : 4:2:0
Битовая глубина : 8 бит
Тип развёртки : Прогрессивная
Метод сжатия : С потерями
Бит/(Пиксели*Кадры) : 0.362
Размер потока : 1,26 Гбайт (92%)
Библиотека кодирования : XviD 1.2.1 (UTC 2008-12-04)
Аудио
Идентификатор : 1
Формат : MPEG Audio
Версия формата : Version 1
Профиль формата : Layer 3
Режим : Joint stereo
Идентификатор кодека : 55
Идентификатор кодека/Подсказка : MP3
Продолжительность : 1 ч. 13 м.
Вид битрейта : Постоянный
Битрейт : 192 Кбит/сек
Каналы : 2 канала
Частота : 48,0 КГц
Метод сжатия : С потерями
Размер потока : 101 Мбайт (7%)
Выравнивание : Разделение по промежуткам
Продолжительность промежутка : 40 мс. (1,00 видеокадр)
Время предзагрузки промежутка : 500 ms
Download / Скачать

Хотите скачать бесплатно? Зарегистрируйтесь на сайте (ссылка на регистрацию). Pirat.ca - самый быстрый торрент трекер в рунете!

Как скачивать  ·   Что такое торрент  ·   Рейтинг и ограничения



Последний раз редактировалось: UA4HQW (2012-05-26 11:58), всего редактировалось 1 раз

Пост 27-Май-2012 16:22 (спустя 1 день 4 часа)

Топик был перенесен из форума Наше Кино в форум Российские фильмы

ara1205
 

osvax

Морской Волк

412

Пост 27-Май-2012 20:42 (спустя 1 день 9 часов)

[Q] 

Поглядим
[Профиль]  [ЛС] 

Wolf111

57118

Пост 20-Дек-2012 22:35 (спустя 6 месяцев 24 дня)

[Q] 

Помогу с раздачей
[Профиль]  [ЛС] 

viktor41

Шкипер

Пост 24-Мар-2014 20:38 (спустя 1 год 3 месяца)

[Q] 

UA4HQW, Спасибочки ! Автору респект!!! Супер!
[Профиль]  [ЛС] 
Показать сообщения:    
Ответить на тему

Текущее время: Сегодня 21:22

Часовой пояс: GMT + 4



Вы не можете начинать темы
Вы не можете отвечать на сообщения
Вы не можете редактировать свои сообщения
Вы не можете удалять свои сообщения
Вы не можете голосовать в опросах
Вы не можете прикреплять файлы к сообщениям
Вы не можете скачивать файлы

▼ Вниз