ML
     
  Уважаемый Гость!
Вы можете поддержать проект и зарегистрироваться у наших партнеров - онлайн-стратегия MyLands. При регистрации в игре Вы получите код, который сможете активировать после регистрации на pirat.ca и получить 1000 дублонов.

Ваш код:
4855957e17f50c5c1236a0f8c4492b2b0bba00a0
 
     

Сердце без замка (Петр Степин) [2012 г., мелодрама, IPTVRip]

Ответить на тему
 
Автор
Сообщение

Пост 28-Май-2012 19:23

[Q] 

UA4HQW

Флибустьер

Сердце без замка
Год выпуска: 2012
Производство: Россия, Продюсерская компания "Медиапрофсоюз"
Жанр: мелодрама
Продолжительность: 01:45:12
Режиссер: Петр Степин
В ролях
Ксения Кузнецова, Сергей Мухин, Руслан Чернецкий, Галина Чернобаева, Илья Капанец, Дарья Баранова, Алёна Козырева, Валерий Кащеев, Евгения Гирзекорн
Описание
Когда-то давно Мариша повстречала музыканта Вениамина. От него ушла любимая женщина. Мариша прониклась сочувствием к Вениамину и попыталась поддержать его в трудную минуту. Mежду ними завязался роман, а потом родился Вовка. Мариша как-то "незаметно для себя" стала жить с Вениамином в квартире его мамы - то ли на правах жены, то ли на правах служанки. Однажды из длительных заграничных гастролей возвращается Карина, бывшая любовь Вениамина. Роман между ними вспыхивает с новой силой. Вскоре Мариша узнает, что ее гражданский муж собирается уехать за границу с "новой-старой" пассией и увезти с собой Вовку...
Источник/Качество: IPTVRip
Формат: AVI
Видео кодек: DivX
Аудио кодек: MP3
Видео: 720x400 (1.80:1), 25 fps, DivX Codec 5.x or 6.x ~1550 kbps avg, 0.22 bit/pixel
Аудио: 44.100 kHz, MPEG Layer 3, 2 ch, ~128.00 kbps avg
Общее
Полное имя : Сердце без замка (2012).avi
Формат : AVI
Формат/Информация : Audio Video Interleave
Размер файла : 1,24 Гбайт
Продолжительность : 1 ч. 44 м.
Общий поток : 1688 Кбит/сек
Библиотека кодирования : VirtualDub build 32507/release
Видео
Идентификатор : 0
Формат : MPEG-4 Visual
Параметр BVOP формата : 1
Параметр QPel формата : Нет
Параметр GMC формата : Без точки перехода
Параметр матрицы формата : Default (H.263)
Режим смешивания : Сжатый битовый поток
Идентификатор кодека : DX50
Идентификатор кодека/Подсказка : DivX 5
Продолжительность : 1 ч. 44 м.
Битрейт : 1551 Кбит/сек
Ширина : 720 пикс.
Высота : 400 пикс.
Соотношение сторон : 16:9
Частота кадров : 25,000 кадр/сек
Цветовое пространство : YUV
Подвыборка цветности : 4:2:0
Битовая глубина : 8 бит
Тип развёртки : Прогрессивная
Метод сжатия : С потерями
Бит/(Пиксели*Кадры) : 0.215
Размер потока : 1,13 Гбайт (92%)
Библиотека кодирования : DivX 3013
Аудио
Идентификатор : 1
Формат : MPEG Audio
Версия формата : Version 1
Профиль формата : Layer 3
Идентификатор кодека : 55
Идентификатор кодека/Подсказка : MP3
Продолжительность : 1 ч. 44 м.
Вид битрейта : Постоянный
Битрейт : 128 Кбит/сек
Каналы : 2 канала
Частота : 44,1 КГц
Метод сжатия : С потерями
Задержка видео : 7 мс.
Размер потока : 95,9 Мбайт (8%)
Выравнивание : Разделение по промежуткам
Продолжительность промежутка : 40 мс. (1,00 видеокадр)
Время предзагрузки промежутка : 500 ms
Download / Скачать

Хотите скачать бесплатно? Зарегистрируйтесь на сайте (ссылка на регистрацию). Pirat.ca - самый быстрый торрент трекер в рунете!

Как скачивать  ·   Что такое торрент  ·   Рейтинг и ограничения



Последний раз редактировалось: UA4HQW (2012-05-28 19:44), всего редактировалось 1 раз

Пост 28-Май-2012 19:55 (спустя 32 минуты)

Топик был перенесен из форума Наше Кино в форум Новинки (HD|DVD|BD|TV|SAT|PDTV| - Rips)

Linnan
 

anonymoys

Гроза морей

901

Пост 28-Май-2012 21:02 (спустя 1 час 38 минут)

[Q] 

[Профиль]  [ЛС] 

Pesok

Гроза морей

Пост 29-Май-2012 15:08 (спустя 18 часов)

[Q] 

spasibo...

_________________
[Профиль]  [ЛС] 

Alikbest

Шкипер

Пост 06-Июн-2012 11:09 (спустя 7 дней)

[Q] 

спасибо!!!
[Профиль]  [ЛС] 

Пост 08-Июл-2012 09:16 (спустя 1 месяц 1 день)

Топик был перенесен из форума Новинки (HD|DVD|BD|TV|SAT|PDTV| - Rips) в форум Российские фильмы

erchine
 

albina-1951

Лоцман

Пост 12-Июл-2012 17:18 (спустя 1 месяц 6 дней)

[Q] 

Спасибо!
[Профиль]  [ЛС] 
Показать сообщения:    
Ответить на тему

Текущее время: Сегодня 06:14

Часовой пояс: GMT + 4



Вы не можете начинать темы
Вы не можете отвечать на сообщения
Вы не можете редактировать свои сообщения
Вы не можете удалять свои сообщения
Вы не можете голосовать в опросах
Вы не можете прикреплять файлы к сообщениям
Вы не можете скачивать файлы

▼ Вниз