ML
     
  Уважаемый Гость!
Вы можете поддержать проект и зарегистрироваться у наших партнеров - онлайн-стратегия MyLands. При регистрации в игре Вы получите код, который сможете активировать после регистрации на pirat.ca и получить 1000 дублонов.

Ваш код:
ec3b26eefbcdc72e08e9fd33c6846bb2ca10f8b1
 
     

Поверь, все будет хорошо (Максим Бриус) [2012 г., мелодрама, SATRip]

Ответить на тему
 
Автор
Сообщение

Пост 28-Май-2012 20:10

[Q] 

UA4HQW

Флибустьер

Поверь, все будет хорошо
Год выпуска: 2012
Производство: Россия, Кинокомпания "Тесей"
Российская премьера: 26 мая 2012
Жанр: мелодрама
Продолжительность: 01:38:56
Режиссер: Максим Бриус
В ролях
Валентина Ласовская, Алиса Авчинник, Евгений Никитин, Юрий Николаенко
Описание
Ирина - состоявшийся врач-гинеколог, Женя - юная девушка-провинциалка. Однажды их судьбы пересекаются и завязываются тугим узлом. Женя, несмотря на протесты отца, уезжает в большой город вместе с любимым парнем. Вскоре все происходит так, как и предсказывал отец: Женя беременеет, а жених сбегает. Боясь возвращения домой "с животом", девушка решается на аборт и попадает к Ирине. Ирина, видя, что пациентка находится на большом сроке, отговаривает девушку от совершения ошибки. В качестве выхода из ситуации Ирина предлагает Жене в течение беременности пожить у нее, а впоследствии оставить малыша ей, Ирине. На это у женщины есть особая причина - когда-то в молодости парень настоял на аборте, и теперь она одна: без мужа и детей. Ирина надеется таким способом исправить "ошибку молодости".
Источник/Качество: SATRip
Формат: AVI
Сэмпл
Видео кодек: DivX
Аудио кодек: MP3
Видео: 704x384 (1.83:1), 25 fps, DivX Codec 6.8.5/6.9.1 ~1519 kbps avg, 0.23 bit/pixel
Аудио: 48 kHz, MPEG Layer 3, 2 ch, ~128.00 kbps avg
Общее
Полное имя : Pover.vse.budet.horosho.2012.SATRip..avi
Формат : AVI
Формат/Информация : Audio Video Interleave
Размер файла : 1,15 Гбайт
Продолжительность : 1 ч. 38 м.
Общий поток : 1658 Кбит/сек
Программа кодирования : VirtualDubMod 1.5.10.2 (build 2540/release)
Библиотека кодирования : VirtualDub build 29808/release
Видео
Идентификатор : 0
Формат : MPEG-4 Visual
Параметр BVOP формата : 1
Параметр QPel формата : Нет
Параметр GMC формата : Без точки перехода
Параметр матрицы формата : Default (H.263)
Режим смешивания : Сжатый битовый поток
Идентификатор кодека : DX50
Идентификатор кодека/Подсказка : DivX 5
Продолжительность : 1 ч. 38 м.
Битрейт : 1520 Кбит/сек
Ширина : 704 пикс.
Высота : 384 пикс.
Соотношение сторон : 16:9
Частота кадров : 25,000 кадр/сек
Цветовое пространство : YUV
Подвыборка цветности : 4:2:0
Битовая глубина : 8 бит
Тип развёртки : Прогрессивная
Метод сжатия : С потерями
Бит/(Пиксели*Кадры) : 0.225
Размер потока : 1,05 Гбайт (92%)
Библиотека кодирования : DivX 6.8.5 (UTC 2009-08-20)
Аудио
Идентификатор : 1
Формат : MPEG Audio
Версия формата : Version 1
Профиль формата : Layer 3
Режим : Joint stereo
Идентификатор кодека : 55
Идентификатор кодека/Подсказка : MP3
Продолжительность : 1 ч. 38 м.
Вид битрейта : Постоянный
Битрейт : 128 Кбит/сек
Каналы : 2 канала
Частота : 48,0 КГц
Метод сжатия : С потерями
Размер потока : 90,6 Мбайт (8%)
Выравнивание : Соединение по промежуткам
Продолжительность промежутка : 40 мс. (1,00 видеокадр)
Время предзагрузки промежутка : 504 ms
Библиотека кодирования : LAME3.90.3
Download / Скачать

Хотите скачать бесплатно? Зарегистрируйтесь на сайте (ссылка на регистрацию). Pirat.ca - самый быстрый торрент трекер в рунете!

Как скачивать  ·   Что такое торрент  ·   Рейтинг и ограничения



Последний раз редактировалось: UA4HQW (2012-05-28 22:13), всего редактировалось 1 раз

Пост 28-Май-2012 22:31 (спустя 2 часа 21 минута)

Топик был перенесен из форума Наше Кино в форум Новинки (HD|DVD|BD|TV|SAT|PDTV| - Rips)

erchine
 

nadabibak

Гроза морей

Пост 28-Май-2012 22:59 (спустя 2 часа 48 минут)

[Q] 

Спасибо за раздачу
[Профиль]  [ЛС] 

OleksBy

Корсар

Пост 29-Май-2012 09:43 (спустя 10 часов)

[Q] 

Спасибо.
[Профиль]  [ЛС] 

Pesok

Гроза морей

Пост 29-Май-2012 15:07 (спустя 5 часов)

[Q] 

spasibo

_________________
[Профиль]  [ЛС] 

Пост 08-Июл-2012 09:16 (спустя 1 месяц 9 дней)

Топик был перенесен из форума Новинки (HD|DVD|BD|TV|SAT|PDTV| - Rips) в форум Российские фильмы

erchine
 

krasavchik34

Пост 19-Авг-2012 13:36 (спустя 2 месяца 20 дней)

[Q] 

посмотрим!!!!!!!!!!!!.
[Профиль]  [ЛС] 
Показать сообщения:    
Ответить на тему

Текущее время: Сегодня 03:47

Часовой пояс: GMT + 4



Вы не можете начинать темы
Вы не можете отвечать на сообщения
Вы не можете редактировать свои сообщения
Вы не можете удалять свои сообщения
Вы не можете голосовать в опросах
Вы не можете прикреплять файлы к сообщениям
Вы не можете скачивать файлы

▼ Вниз