ML
     
  Уважаемый Гость!
Вы можете поддержать проект и зарегистрироваться у наших партнеров - онлайн-стратегия MyLands. При регистрации в игре Вы получите код, который сможете активировать после регистрации на pirat.ca и получить 1000 дублонов.

Ваш код:
dbd0d701284cde74a1f34d06ce20b7bc75a73e75
 
     

Обитаемый остров: Схватка (Фёдор Бондарчук) [2009 г., фантастика, боевик, BDRip]

Ответить на тему
 
Автор
Сообщение

Пост 29-Май-2012 21:05

[Q] 

rock_rebel

Корсар

Обитаемый остров: Схватка
Год выпуска: 2009
Российская премьера: 23 апреля 2009
Дата выхода DVD: 21 мая 2009
Дата выхода Blu-Ray: 23 июля 2009
Производство: Россия
Жанр: фантастика, боевик
Продолжительность: 01:47:07
Субтитры: русские, украинские, английские
Режиссер: Фёдор Бондарчук
В ролях
Василий Степанов
Гоша Куценко
Фёдор Бондарчук
Алексей Серебряков
Сергей Гармаш
Петр Федоров
Михаил Евланов
Юлия Снигирь
Андрей Мерзликин
Алексей Пусько
Описание
2157 год. Человечество создает космическую группу, названную ГСП — группой свободного поиска. Теперь любой землянин, получив космический корабль и зарегистрировав свой маршрут, волен отправиться к звездам. Так и поступает Максим Каммерер, не подозревая, что ему предстоит потерпеть крушение на далекой планете, попасть в плен и оказаться один на один с чужим враждебным миром.
КиноПоиск
Источник/Качество: BDRip
Формат: AVI
Видео кодек: XviD
Аудио кодек: AC3
Видео: XviD, 720 x 304, 23,976 fps, 2454 kbps avg, 0.46 bit/pixel
Аудио: Русский: AC3 (6 ch), 48 kHz, 448 kbps
Формат субтитров: softsub (SRT)
Кинонаграды «MTV-Россия», 2009 год: Лучший трейлер
General
Complete name : F:\TORRENTS\(фильмы\Obitaemyi.Ostrov.Shvatka.2009.BDRip\Obitaemyi.Ostrov.Shvatka.2009.BDRip.avi
Format : AVI
Format/Info : Audio Video Interleave
Format profile : OpenDML
File size : 2.18 GiB
Duration : 1h 47mn
Overall bit rate : 2 914 Kbps
Writing application : VirtualDubModRus 1.5.10.2 (build 2542/release)
Writing library : VirtualDubMod build 2542/release
Video
ID : 0
Format : MPEG-4 Visual
Format profile : Advanced [email protected]
Format settings, BVOP : 2
Format settings, QPel : No
Format settings, GMC : No warppoints
Format settings, Matrix : Default (MPEG)
Muxing mode : Packed bitstream
Codec ID : XVID
Codec ID/Hint : XviD
Duration : 1h 47mn
Bit rate : 2 454 Kbps
Width : 720 pixels
Height : 304 pixels
Display aspect ratio : 2.35:1
Frame rate : 23.976 fps
Color space : YUV
Chroma subsampling : 4:2:0
Bit depth : 8 bits
Scan type : Progressive
Compression mode : Lossy
Bits/(Pixel*Frame) : 0.468
Stream size : 1.84 GiB (84%)
Writing library : XviD 1.2.1 (UTC 2008-12-04)
Audio
ID : 1
Format : AC-3
Format/Info : Audio Coding 3
Mode extension : CM (complete main)
Codec ID : 2000
Duration : 1h 47mn
Bit rate mode : Constant
Bit rate : 448 Kbps
Channel(s) : 6 channels
Channel positions : Front: L C R, Side: L R, LFE
Sampling rate : 48.0 KHz
Bit depth : 16 bits
Compression mode : Lossy
Stream size : 343 MiB (15%)
Alignment : Split accross interleaves
Interleave, duration : 42 ms (1.00 video frame)
Interleave, preload duration : 500 ms
Знаете ли вы, что...
Статистика человеческих и технологических ресурсов, оборудования и реквизита, задействованного на съемках картины: около 7 000 человек массовки, 300 оригинальных моделей и 3 000 костюмов, 400 пар обуви, 450 килограммов грима, 13 особым образом сконструированных танков (из них 9 танков типа Т-64, 3 БТР и 1 новый БТР «Гром»), 300 стволов специально созданного «саракшского» огнестрельного оружия, рекордное количество пиротехники (суммарный пиротехнический заряд составляет 1,5 тонны в тротиловом эквиваленте,) съемочный период, который на настоящий момент насчитывает 222 дня, от 4 до 7 одновременно работающих на площадке камер, 120 километров уже отснятой пленки (для сравнения, длина МКАД – 108,9 км), 980 кассет, 70 объектов, 4 000 планов (в среднем каждый план снимался в пяти дублях, значит, Бондарчуку пришлось сказать «Мотор!» и «Стоп!» примерно 20 000 раз).
Download / Скачать

Хотите скачать бесплатно? Зарегистрируйтесь на сайте (ссылка на регистрацию). Pirat.ca - самый быстрый торрент трекер в рунете!

Как скачивать  ·   Что такое торрент  ·   Рейтинг и ограничения

Пост 29-Май-2012 21:30 (спустя 25 минут)

Топик был перенесен из форума Наше Кино в форум Российские фильмы

erchine
 

Дядя Витя

53892

Пост 29-Май-2012 21:33 (спустя 27 минут)

[Q] 

Массаракш !

_________________
?
[Профиль]  [ЛС] 

aiden57

Гроза морей

3259

Пост 10-Июн-2012 11:48 (спустя 11 дней)

[Q] 


_________________

Мои раздачи
[Профиль]  [ЛС] 

rock_rebel ®

Корсар

227

Пост 23-Июн-2012 06:03 (спустя 12 дней)

[Q] 

будем будем.чаще всего сижу в дневное время

_________________
Здесь каждый гад хочет стать депутатом,
Чтоб ездить по странам и эмиратам,
А я хочу стать пулей в стволе,
Чтоб помнили гады всегда обо мне.
[Профиль]  [ЛС] 

Sergi4

Гроза морей

Пост 04-Сен-2013 21:14 (спустя 1 год 2 месяца)

[Q] 

Спасибо!!!
[Профиль]  [ЛС] 

darkroot

Шкипер

Пост 14-Май-2014 07:12 (спустя 8 месяцев 9 дней)

[Q] 

спасибо) первая часть понравилась, хоть и не совсем реалистично

_________________
[Профиль]  [ЛС] 
Показать сообщения:    
Ответить на тему

Текущее время: Сегодня 18:30

Часовой пояс: GMT + 4



Вы не можете начинать темы
Вы не можете отвечать на сообщения
Вы не можете редактировать свои сообщения
Вы не можете удалять свои сообщения
Вы не можете голосовать в опросах
Вы не можете прикреплять файлы к сообщениям
Вы не можете скачивать файлы

▼ Вниз