ML
     
  Уважаемый Гость!
Вы можете поддержать проект и зарегистрироваться у наших партнеров - онлайн-стратегия MyLands. При регистрации в игре Вы получите код, который сможете активировать после регистрации на pirat.ca и получить 1000 дублонов.

Ваш код:
aec9a4a936117fb450ba69e519991a0465404b1d
 
     

Антикиллер 2: Антитеррор (Егор Михалков-Кончаловский) [2003 г., Боевик, DVDRip]

Ответить на тему
 
Автор
Сообщение

Пост 02-Июн-2012 09:53

[Q] 

megamastor

Антикиллер 2: Антитеррор
Год выпуска: 2003
Российская премьера: 27 ноября 2003
Дата выхода DVD: 2 апреля 2009
Производство: MB Production
Жанр: Боевик
Продолжительность: 02:05:48
Режиссер: Егор Михалков-Кончаловский
В ролях
Гоша Куценко, Сергей Шакуров, Иван Бортник, Любовь Толкалина, Вячеслав Разбегаев, Сергей Векслер, Михаил Ефремов, Любомир Лауцявичус, Алексей Серебряков, Евгений Стычкин, Алексей Булдаков, Владимир Стеклов
Описание
Россия. Начало 21-го века. Со времени событий первого "Антикиллера" прошло 10 лет. Мир изменился. Границы между странами стали практически прозрачными. И на первый план вышла прямая и явная угроза - терроризм, не имеющий национальности и угрожающий безопасности всего мира. "Крепкий орешек" ЛИС пытается сорвать планы террористов, уничтожить многомиллионный город. Схватка будет смертельной и бескомпромиссной…
КиноПоиск
Источник/Качество: DVDRip
Формат: AVI
Видео кодек: XviD
Аудио кодек: AC3
Видео: 704x304 (2.32:1), 25 fps, XviD build 50 ~2028 kbps avg, 0.38 bit/pixel
Аудио: 48 kHz, AC3 Dolby Digital, 3/2 (L,C,R,l,r) + LFE ch, ~448.00 kbps avg
Общее
Формат : AVI
Формат/Информация : Audio Video Interleave
Профиль формата : OpenDML
Размер файла : 2,18 Гбайт
Продолжительность : 2 ч. 5 м.
Общий поток : 2483 Кбит/сек
Программа кодирования : VirtualDubMod 1.5.10.2 (build 2540/release)
Библиотека кодирования : VirtualDubMod build 2540/release
Видео
Идентификатор : 0
Формат : MPEG-4 Visual
Профиль формата : Advanced [email protected]
Параметр BVOP формата : 1
Параметр QPel формата : Нет
Параметр GMC формата : Без точки перехода
Параметр матрицы формата : Default (MPEG)
Идентификатор кодека : XVID
Идентификатор кодека/Подсказка : XviD
Продолжительность : 2 ч. 5 м.
Битрейт : 2023 Кбит/сек
Ширина : 704 пикселя
Высота : 304 пикселя
Соотношение сторон : 2,35:1
Частота кадров : 25,000 кадров/сек
Цветовое пространство : YUV
Субдискретизация насыщенности : 4:2:0
Битовая глубина : 8 бит
Тип развёртки : Прогрессивная
Метод сжатия : С потерями
Бит/(Пиксели*Кадры) : 0.378
Размер потока : 1,78 Гбайт (81%)
Библиотека кодирования : XviD 1.2.1 (UTC 2008-12-04)
Аудио
Идентификатор : 1
Формат : AC-3
Формат/Информация : Audio Coding 3
Расширение режима : CM (complete main)
Идентификатор кодека : 2000
Продолжительность : 2 ч. 5 м.
Вид битрейта : Постоянный
Битрейт : 448 Кбит/сек
Каналы : 6 каналов
Расположение каналов : Front: L C R, Side: L R, LFE
Частота : 48,0 КГц
Битовая глубина : 16 бит
Метод сжатия : С потерями
Размер потока : 403 Мбайт (18%)
Выравнивание : Разделение по промежуткам
Продолжительность промежутка : 40 мс. (1,00 видеокадр)
Время предзагрузки промежутка : 500 мс.
Download / Скачать

Хотите скачать бесплатно? Зарегистрируйтесь на сайте (ссылка на регистрацию). Pirat.ca - самый быстрый торрент трекер в рунете!

Как скачивать  ·   Что такое торрент  ·   Рейтинг и ограничения

Пост 02-Июн-2012 10:22 (спустя 28 минут)

Топик был перенесен из форума Наше Кино в форум Российские фильмы

zyyx
 

freemangamer

Штурман

Пост 18-Фев-2013 01:05 (спустя 8 месяцев 15 дней)

[Q] 

дайте скорости.
[Профиль]  [ЛС] 

kudrjavy

Флибустьер

Пост 04-Сен-2013 01:27 (спустя 6 месяцев 14 дней)

[Q] 

Спасиб!)) Лови бочку

_________________
Девушки-как печеньки: ломаются,пока не намокнут...
[Профиль]  [ЛС] 
Показать сообщения:    
Ответить на тему

Текущее время: Сегодня 02:22

Часовой пояс: GMT + 4



Вы не можете начинать темы
Вы не можете отвечать на сообщения
Вы не можете редактировать свои сообщения
Вы не можете удалять свои сообщения
Вы не можете голосовать в опросах
Вы не можете прикреплять файлы к сообщениям
Вы не можете скачивать файлы

▼ Вниз