ML
     
  Уважаемый Гость!
Вы можете поддержать проект и зарегистрироваться у наших партнеров - онлайн-стратегия MyLands. При регистрации в игре Вы получите код, который сможете активировать после регистрации на pirat.ca и получить 1000 дублонов.

Ваш код:
bb0cb47ee786a33f751af5a500dd264c9487bfac
 
     

ДМБ [5 частей](Роман Качанов,Александр Басов, Марат Рафиков) [2000-2001](комедия) DVDRip

Страницы :  1, 2  След.

Ответить на тему
 
Автор
Сообщение

Пост 07-Дек-2011 13:01

[Q] 

megamastor

ДМБ [5 частей] (2000-2001)--ДМБ
О фильме:
год: 2000
страна:Россия
режиссёр: Роман Качанов
жанр: комедия
премьера (РФ): 2000 год
В главных ролях:
Станислав Дужников Александр Белявский Юозас Будрайтис Виктор Павлов
Иван Охлобыстин Сергей Габриэлян Сергей Арцибашев Роман Качанов Петр Коршунков Дмитрий Неживой
Описание: Студент Штык соблазнил профессорскую жену; рабочий парень Бомба спалил до тла родной завод; завсегдатай казино Пуля скрывается от кредиторов — всем одна дорога — на призывной пункт. Там их учат, что в человеке должно быть все прекрасно — погоны, кокарда, исподнее — иначе ты не человек, а млекопитающее.Для настоящего мужчины нет лучше места, чем родная армия. А рано или поздно, «дембельский поезд» — «чух — чух — чух» — доставит тебя домой, и ты бесповоротно поймешь, что до армии был ничем, а теперь, по крайней мере, стал всем.
Качество: DVDRip
Формат: avi
Видео кодек: DivX
Аудио кодек: Mp3
Видео: 640x400 (1.60:1), 25 fps, DivX ;-) MPEG-4 Low-Motion ~1074 kbps avg, 0.17 bit/pixel
Аудио: 48 kHz, MPEG Layer 3, 2 ch, ~96.00 kbps avg
Общее
Полное имя : F:\Dowloads\фильмы\ДМБ 1-5 [pirat.ca]\DMB.01.2000.DivX.DVDRip.avi
Формат : AVI
Формат/Информация : Audio Video Interleave
Размер файла : 682 Мбайт
Продолжительность : 1 ч. 23 м.
Общий поток : 1140 Кбит/сек
Библиотека кодирования : VirtualDub build 13130/release
Видео
Идентификатор : 0
Формат : MPEG-4 Visual
Идентификатор кодека : DIV3
Идентификатор кодека/Подсказка : DivX 3 Low
Продолжительность : 1 ч. 20 м.
Битрейт : 1074 Кбит/сек
Ширина : 640 пикселей
Высота : 400 пикселей
Соотношение сторон : 1,600
Частота кадров : 25,000 кадров/сек
Цветовое пространство : YUV
Субдискретизация насыщенности : 4:2:0
Битовая глубина : 8 бит
Метод сжатия : С потерями
Бит/(Пиксели*Кадры) : 0.168
Размер потока : 620 Мбайт (91%)
Аудио
Идентификатор : 1
Формат : MPEG Audio
Версия формата : Version 1
Профиль формата : Layer 3
Режим : Joint stereo
Расширение режима : Intensity Stereo + MS Stereo
Идентификатор кодека : 55
Идентификатор кодека/Подсказка : MP3
Продолжительность : 1 ч. 23 м.
Вид битрейта : Постоянный
Битрейт : 96,0 Кбит/сек
Каналы : 2 канала
Частота : 48,0 КГц
Метод сжатия : С потерями
Размер потока : 57,4 Мбайт (8%)
Выравнивание : Разделение по промежуткам
Продолжительность промежутка : 82 мс. (2,06 видеокадра)
Время предзагрузки промежутка : 5015530 мс.



--ДМБ-002
О фильме:
год: 2000
страна:Россия
режиссёр: Александр Басов, Марат Рафиков
жанр: комедия
премьера (РФ): 2000 год
В главных ролях:
Виктор Павлов Сергей Арцибашев Петр Коршунков Станислав Дужников Алиса Гребенщикова Сергей Петров Игорь Письменный Михаил Полицеймако Алексей Ошурков Владислав Копп
Описание: Комедия, снятая по мотивам культового фильма Романа Качанова «ДМБ». Прапорщик и трое солдат — Бомба, Штык и Пуля — потеряли ящик с двумя боеголовками, которые везли на выставку-ярмарку оружия для продажи дружественному индийскому народу.
Пьяного прапорщика запаяли в бочку и сказали покупателям, что это армейский мудрец — гуру. Вот ему и пришлось вещать через окошко, проделанное в бочке, превращая каждое изречение в краткий тост. На поклон прапорщику начинают стекаться паломники. После индийцев приехали познавать смысл жизни немцы, а за ними шведки…
Качество: DVDRip
Формат: avi
Видео кодек: DivX
Аудио кодек: Mp3
Видео: 496x288 (1.72:1), 25 fps, DivX ;-) MPEG-4 Low-Motion ~1124 kbps avg, 0.32 bit/pixel - Videostream
Аудио: 48 kHz, MPEG Layer 3, 2 ch, ~128.00 kbps avg - Audiostream 1
Общее
Полное имя : F:\Dowloads\фильмы\ДМБ 1-5 [pirat.ca]\DMB.02.2000.DivX.DVDRip.avi
Формат : AVI
Формат/Информация : Audio Video Interleave
Размер файла : 627 Мбайт
Продолжительность : 1 ч. 9 м.
Общий поток : 1257 Кбит/сек
Видео
Идентификатор : 0
Формат : MPEG-4 Visual
Идентификатор кодека : DIV3
Идентификатор кодека/Подсказка : DivX 3 Low
Продолжительность : 1 ч. 9 м.
Битрейт : 1124 Кбит/сек
Ширина : 496 пикселей
Высота : 288 пикселей
Соотношение сторон : 16:9
Частота кадров : 25,000 кадров/сек
Цветовое пространство : YUV
Субдискретизация насыщенности : 4:2:0
Битовая глубина : 8 бит
Метод сжатия : С потерями
Бит/(Пиксели*Кадры) : 0.315
Размер потока : 561 Мбайт (89%)
Заголовок : Videostream
Аудио
Идентификатор : 1
Формат : MPEG Audio
Версия формата : Version 1
Профиль формата : Layer 3
Режим : Joint stereo
Расширение режима : MS Stereo
Идентификатор кодека : 55
Идентификатор кодека/Подсказка : MP3
Продолжительность : 1 ч. 9 м.
Source_Duration/String : 1 ч. 9 м.
Вид битрейта : Постоянный
Битрейт : 128 Кбит/сек
Каналы : 2 канала
Частота : 48,0 КГц
Метод сжатия : С потерями
Размер потока : 63,9 Мбайт (10%)
Выравнивание : Разделение по промежуткам
Продолжительность промежутка : 1000 мс. (25,00 видеокадров)
Заголовок : Audiostream 1



--ДМБ-003
О фильме:
год: 2001
страна:Россия
режиссёр: Александр Басов, Марат Рафиков
жанр: комедия
премьера (РФ): 2001 год
В главных ролях:
Виктор Павлов Сергей Арцибашев Петр Коршунков Станислав Дужников Алиса Гребенщикова Сергей Петров Игорь Письменный Михаил Полицеймако Алексей Ошурков Владислав Копп
Описание:Дембеля послали Бомбу купить яблок, бананов и прочей богатой витаминами жрачки. Бомба принес ведро грибов, как сказала продавшая их старушка, сушеных подберезовиков, собранных и высушенных питерскими студентами. Приготовил Бомба грибы вместе со Штыком, а тут на запах генерал-майор «батя» пожаловал. Всех, кто откушал питерских грибков, вскоре конкретно зацепило. Все это сопровождается соответствующим саундтреком, как бы взятого со станции «Наше Радио». Такое вот начало третьей по счету комедии о дембелях.
Формат: avi
Видео кодек: DivX
Аудио кодек: Mp3
Видео: 512x288 (1.78:1), 25 fps, DivX ;-) MPEG-4 Low-Motion ~1277 kbps avg, 0.35 bit/pixel
Аудио: 48 kHz, MPEG Layer 3, 2 ch, ~106.39 kbps avg
Общее
Полное имя : F:\Dowloads\фильмы\ДМБ 1-5 [pirat.ca]\DMB.03.2001.DivX.DVDRip.avi
Формат : AVI
Формат/Информация : Audio Video Interleave
Размер файла : 631 Мбайт
Продолжительность : 1 ч. 3 м.
Режим общего битрейта : Переменный
Общий поток : 1397 Кбит/сек
Программа кодирования : Nandub v1.0rc2
Библиотека кодирования : Nandub build 1853/release
Видео
Идентификатор : 0
Формат : MPEG-4 Visual
Идентификатор кодека : DIV3
Идентификатор кодека/Подсказка : DivX 3 Low
Продолжительность : 1 ч. 3 м.
Битрейт : 1278 Кбит/сек
Ширина : 512 пикселей
Высота : 288 пикселей
Соотношение сторон : 16:9
Частота кадров : 25,000 кадров/сек
Цветовое пространство : YUV
Субдискретизация насыщенности : 4:2:0
Битовая глубина : 8 бит
Метод сжатия : С потерями
Бит/(Пиксели*Кадры) : 0.347
Размер потока : 577 Мбайт (91%)
Аудио
Идентификатор : 1
Формат : MPEG Audio
Версия формата : Version 1
Профиль формата : Layer 3
Режим : Joint stereo
Расширение режима : MS Stereo
Идентификатор кодека : 55
Идентификатор кодека/Подсказка : MP3
Продолжительность : 1 ч. 3 м.
Вид битрейта : Переменный
Битрейт : 106 Кбит/сек
Каналы : 2 канала
Частота : 48,0 КГц
Метод сжатия : С потерями
Задержка видео : 21 мс.
Размер потока : 48,0 Мбайт (8%)
Выравнивание : Соединение по промежуткам
Продолжительность промежутка : 24 мс. (0,60 видеокадр)
Время предзагрузки промежутка : 546 мс.



--ДМБ-004
О фильме:
год:2001
страна:Россия
режиссёр: Александр Басов, Марат Рафиков
жанр: комедия
премьера (РФ): 2001 год
В главных ролях:
Виктор Павлов Сергей Арцибашев Петр Коршунков Станислав Дужников Алиса Гребенщикова Сергей Петров Игорь Письменный Михаил Полицеймако Алексей Ошурков Владислав Копп
Описание: Генштаб наехал на генерала наших героев, чтобы нормы по лыжам сдали. А стояло лето. Деды слегли в лазарет с коньюктивитом. Салаги надели лыжи и под надзором двух дедов пошли на лыжах по траве. На пути им встретилась водная преграда, не отмеченная на карте. Бомбу послали брод искать, а наткнулись на медведицу (Маша). Бойцы засели в избе и начали бороться с диким зверем, умеющем ходить на передних лапах. Так начинается 4-ый выпуск ДМБ, и в нем будут новые армейские приколы и шуточки.
Формат: avi
Видео кодек: DivX
Аудио кодек: Mp3
Видео: 576x320 (1.80:1), 25 fps, DivX Codec 5.03 ~1343 kbps avg, 0.29 bit/pixel
Audio: 48 kHz, MPEG Layer 3, 2 ch, ~128.82 kbps avg
Аудио: 48 kHz, MPEG Layer 3, 2 ch, ~128.82 kbps avg
Общее
Полное имя : F:\Dowloads\фильмы\ДМБ 1-5 [pirat.ca]\DMB.04.2001.DivX.DVDRip.avi
Формат : AVI
Формат/Информация : Audio Video Interleave
Размер файла : 696 Мбайт
Продолжительность : 1 ч. 5 м.
Режим общего битрейта : Переменный
Общий поток : 1486 Кбит/сек
Название фильма : DMB-004
Режиссёр : RaZoR
Тема : DMB-004
Программа кодирования : VirtualDubMod 1.4.13
Библиотека кодирования : VirtualDub build 14328/release
Правообладатель : RDA Team
Видео
Идентификатор : 0
Формат : MPEG-4 Visual
Параметр BVOP формата : 1
Параметр QPel формата : Нет
Параметр GMC формата : 2 точки перехода
Параметр матрицы формата : Default (H.263)
Режим смешивания : Сжатый битовый поток
Идентификатор кодека : DX50
Идентификатор кодека/Подсказка : DivX 5
Продолжительность : 1 ч. 5 м.
Битрейт : 1345 Кбит/сек
Ширина : 576 пикселей
Высота : 320 пикселей
Соотношение сторон : 16:9
Частота кадров : 25,000 кадров/сек
Цветовое пространство : YUV
Субдискретизация насыщенности : 4:2:0
Битовая глубина : 8 бит
Тип развёртки : Прогрессивная
Метод сжатия : С потерями
Бит/(Пиксели*Кадры) : 0.292
Размер потока : 630 Мбайт (90%)
Библиотека кодирования : DivX 5.0.3 (UTC 2003-01-24)
Аудио
Идентификатор : 1
Формат : MPEG Audio
Версия формата : Version 1
Профиль формата : Layer 3
Режим : Joint stereo
Расширение режима : MS Stereo
Идентификатор кодека : 55
Идентификатор кодека/Подсказка : MP3
Продолжительность : 1 ч. 5 м.
Вид битрейта : Переменный
Битрейт : 129 Кбит/сек
Минимальный битрейт : 112 Кбит/сек
Каналы : 2 канала
Частота : 48,0 КГц
Метод сжатия : С потерями
Размер потока : 60,3 Мбайт (9%)
Выравнивание : Соединение по промежуткам
Продолжительность промежутка : 24 мс. (0,60 видеокадр)
Время предзагрузки промежутка : 500 мс.
Библиотека кодирования : LAME3.93
Настройки программы : -m j -V 4 -q 2 -lowpass 18.7 --vbr-new -b 112



--ДМБ снова в бою
О фильме:
год: 2001
страна:Россия
режиссёр: Александр Басов, Марат Рафиков
жанр: комедия
премьера (РФ): 2001 год
В главных ролях:
Виктор Павлов Сергей Арцибашев Петр Коршунков Станислав Дужников Алиса Гребенщикова Сергей Петров Игорь Письменный Михаил Полицеймако Алексей Ошурков Владислав Копп
Описание: И вот мы наблюдаем удивительное, взахлеб братание арт — тусовки с низовой стихией, условно говоря, мужиков у пивного ларька — всех этих призывников и дембелей, составляющих основную массу мужского населения страны. Выясняется, что у тех и у других есть общий бэкграунд, у них общие мифы, у них общий экзистенциальный опыт, и в точке возле армейского сортира они готовы слиться в экстазе. В этом смысле фильм глубоко показателен. Для мужчин армия — абсолютно сакральный опыт, и какими бы изысканными и оригинальными личностями они себя ни считали, в глубине души у каждого из них живет этот волосатый брутальный дембель, и они его в себе очень любят.
Формат: avi
Видео кодек: DivX
Аудио кодек: Mp3
Видео: 576x320 (1.80:1), 25 fps, DivX Codec 5.03 ~1226 kbps avg, 0.27 bit/pixel
Аудио: 48 kHz, MPEG Layer 3, 2 ch, ~128.40 kbps avg
Общее
Полное имя : F:\Dowloads\фильмы\ДМБ 1-5 [pirat.ca]\DMB.05.2001.DivX.DVDRip.avi
Формат : AVI
Формат/Информация : Audio Video Interleave
Размер файла : 693 Мбайт
Продолжительность : 1 ч. 10 м.
Режим общего битрейта : Переменный
Общий поток : 1368 Кбит/сек
Название фильма : DMB - 003
Режиссёр : RaZoR
Тема : DMB - 003
Программа кодирования : VirtualDubMod 1.4.13
Библиотека кодирования : VirtualDub build 14328/release
Правообладатель : RDA Team
Видео
Идентификатор : 0
Формат : MPEG-4 Visual
Параметр BVOP формата : 1
Параметр QPel формата : Нет
Параметр GMC формата : 2 точки перехода
Параметр матрицы формата : Default (H.263)
Режим смешивания : Сжатый битовый поток
Идентификатор кодека : DX50
Идентификатор кодека/Подсказка : DivX 5
Продолжительность : 1 ч. 10 м.
Битрейт : 1227 Кбит/сек
Ширина : 576 пикселей
Высота : 320 пикселей
Соотношение сторон : 16:9
Частота кадров : 25,000 кадров/сек
Цветовое пространство : YUV
Субдискретизация насыщенности : 4:2:0
Битовая глубина : 8 бит
Тип развёртки : Прогрессивная
Метод сжатия : С потерями
Бит/(Пиксели*Кадры) : 0.266
Размер потока : 622 Мбайт (90%)
Библиотека кодирования : DivX 5.0.3 (UTC 2003-01-24)
Аудио
Идентификатор : 1
Формат : MPEG Audio
Версия формата : Version 1
Профиль формата : Layer 3
Режим : Joint stereo
Расширение режима : MS Stereo
Идентификатор кодека : 55
Идентификатор кодека/Подсказка : MP3
Продолжительность : 1 ч. 10 м.
Вид битрейта : Переменный
Битрейт : 128 Кбит/сек
Минимальный битрейт : 112 Кбит/сек
Каналы : 2 канала
Частота : 48,0 КГц
Метод сжатия : С потерями
Размер потока : 65,1 Мбайт (9%)
Выравнивание : Соединение по промежуткам
Продолжительность промежутка : 24 мс. (0,60 видеокадр)
Время предзагрузки промежутка : 517 мс.
Библиотека кодирования : LAME3.93
Настройки программы : -m j -V 4 -q 2 -lowpass 18.7 --vbr-new -b 112



Download / Скачать

Хотите скачать бесплатно? Зарегистрируйтесь на сайте (ссылка на регистрацию). Pirat.ca - самый быстрый торрент трекер в рунете!

Как скачивать  ·   Что такое торрент  ·   Рейтинг и ограничения

Пост 04-Фев-2012 10:38 (спустя 1 месяц 27 дней)

Топик был перенесен из форума Наше Кино в форум Российские фильмы

Skinwalker
 

egor126

Гроза морей

Пост 04-Фев-2012 10:46 (спустя 1 месяц 27 дней)

[Q] 

пересмотрим. спасибо.
[Профиль]  [ЛС] 

VDGS

Корсар

Пост 04-Фев-2012 11:46 (спустя 59 минут)

[Q] 

клевый "набор", первый раз смотрел-ржал чуть не до слез(особенно первую серию). az
[Профиль]  [ЛС] 

ksg111ban

Гроза морей

Пост 04-Фев-2012 12:18 (спустя 31 минута)

[Q] 

А говорят кто в армии служил тот в цирке не смеётся? Заблуждение: без знакомства с изнанкой казармы,не поймешь всего смака солдатского юмора.

_________________
[Профиль]  [ЛС] 

doorg

Шкипер

Пост 04-Фев-2012 13:47 (спустя 1 час 29 минут)

[Q] 

это да
[Профиль]  [ЛС] 

kmv01

Гроза морей

Пост 04-Фев-2012 13:50 (спустя 2 минуты)

[Q] 

Класс! Давно хотел пересмотреть
[Профиль]  [ЛС] 

alenfr

Пост 05-Фев-2012 14:04 (спустя 1 день)

[Q] 

Супер!!!!

_________________
Кто может — делает, кто не может — учит.
______________________________________
Держи порох сухим, а шпагу острой.
[Профиль]  [ЛС] 

Sergi4

Гроза морей

Пост 06-Фев-2012 11:17 (спустя 21 час)

[Q] 

Спасибо!
[Профиль]  [ЛС] 

pro100userspb

Корсар

Пост 09-Фев-2012 00:08 (спустя 2 дня 12 часов)

[Q] 

кто не курит, не смотреть

_________________
[Профиль]  [ЛС] 

megamastor ®

2827

Пост 09-Фев-2012 18:51 (спустя 18 часов)

[Q] 

Пожалуйста! Спасибо за оформление gEmOkPaTу!!!
[Профиль]  [ЛС] 

KIRST

Корсар

Пост 18-Фев-2012 08:47 (спустя 8 дней)

[Q] 

Спасибо.
[Профиль]  [ЛС] 

megamastor ®

2827

Пост 19-Фев-2012 13:22 (спустя 1 день 4 часа)

[Q] 

опять глючит, я на раздаче но меня нет в списке раздающих...
[Профиль]  [ЛС] 

VaNo192

Корсар

Пост 15-Мар-2012 15:43 (спустя 25 дней)

[Q] 

[Профиль]  [ЛС] 

alleekss777

Лоцман

Пост 01-Апр-2012 18:55 (спустя 17 дней)

[Q] 

Встаньте на раздачу плиз!
[Профиль]  [ЛС] 

oksanych777

Лоцман

Пост 01-Май-2012 20:27 (спустя 1 месяц)

[Q] 

дайте газу
[Профиль]  [ЛС] 

Воффка

Морской Волк

Пост 23-Сен-2012 12:58 (спустя 4 месяца 21 день)

[Q] 

спасибо!!!! А хд или бд рипов нет ни к кого? Они вообще в природе существуют?

_________________
-= Водка, шлюхи, Death Metal!!!=-
[Профиль]  [ЛС] 

Asnerd

Штурман

Пост 18-Ноя-2012 22:18 (спустя 1 месяц 25 дней)

[Q] 

Поржем, спасибо )
[Профиль]  [ЛС] 

mizu

Шкипер

Пост 12-Дек-2012 08:39 (спустя 23 дня)

[Q] 

[Профиль]  [ЛС] 

just_Seva

Штурман

Пост 03-Мар-2013 23:10 (спустя 2 месяца 22 дня)

[Q] 

[Профиль]  [ЛС] 

khvorovs

Шкипер

13

Пост 07-Мар-2013 17:58 (спустя 3 дня)

[Q] 

[Профиль]  [ЛС] 

UncleFather

Легенда

Пост 16-Мар-2013 09:19 (спустя 8 дней)

[Q] 


но только если это DVD-rip (особенно части 4 и 5), то на этот DVD фильмы писали с VHS)))

_________________
Одни боялись Пью, другие - Билли Бонса, а меня... меня боялся сам Флинт
[Профиль]  [ЛС] 

striter

Лоцман

Пост 26-Апр-2013 09:58 (спустя 1 месяц 10 дней)

[Q] 

хороший фильм, спасибо)
[Профиль]  [ЛС] 

SvetaM

Гроза морей

238

Пост 01-Май-2013 11:53 (спустя 5 дней)

[Q] 


_________________
[Профиль]  [ЛС] 

kernels

Штурман

Пост 04-Июн-2013 01:18 (спустя 1 месяц 2 дня)

[Q] 

[Профиль]  [ЛС] 

ivan.tratil 67

Корсар

Пост 04-Июн-2013 10:06 (спустя 8 часов)

[Q] 

[Профиль]  [ЛС] 

t101thegod

Штурман

Пост 10-Июн-2013 01:27 (спустя 5 дней)

[Q] 


_________________
Привет в обед
[Профиль]  [ЛС] 

maftysha777

Лоцман

Пост 30-Июн-2013 10:31 (спустя 20 дней)

[Q] 

[Профиль]  [ЛС] 

LUPIN

Морской Волк

232

Пост 06-Июл-2013 17:21 (спустя 6 дней)

[Q] 

[Профиль]  [ЛС] 

serg_sedoy

Штурман

Пост 20-Авг-2013 23:44 (спустя 1 месяц 14 дней)

[Q] 

Спасибо за фильм. Но есть одно но...
На компе воспроизводится нормально, а сбросил на флешку, чтобы посмотреть на большом экране телевизора через DVD (Pioneer DV-600AV-s), изображение нормальное, а звука нет. Может через конвертер надо переформатировать? Может кто-нибудь подскажет в какой формат?
[Профиль]  [ЛС] 
Показать сообщения:    
Ответить на тему

Текущее время: Сегодня 02:23

Часовой пояс: GMT + 4



Вы не можете начинать темы
Вы не можете отвечать на сообщения
Вы не можете редактировать свои сообщения
Вы не можете удалять свои сообщения
Вы не можете голосовать в опросах
Вы не можете прикреплять файлы к сообщениям
Вы не можете скачивать файлы

▼ Вниз