ML
     
  Уважаемый Гость!
Вы можете поддержать проект и зарегистрироваться у наших партнеров - онлайн-стратегия MyLands. При регистрации в игре Вы получите код, который сможете активировать после регистрации на pirat.ca и получить 1000 дублонов.

Ваш код:
69f316be79867e9bf99caee9682d20bb11964507
 
     

Роковые яйца (Сергей Ломкин) [1995 г., Фантастика, DVDRip]

Ответить на тему
 
Автор
Сообщение

Пост 02-Июн-2012 10:52

[Q] 

megamastor

Роковые яйца
Год выпуска: 1995
Производство: Киностудия АДА-ФИЛЬМ
Жанр: Фантастика
Продолжительность: 01:57:27
Режиссер: Сергей Ломкин
В ролях
Олег Янковский, Гарик Сукачев, Нина Усатова, Андрей Толубеев, Виктор Павлов, Александр Ширвиндт, Татьяна Кравченко, Сергей Гармаш, Семен Фарада, Ирина Сенотова, Александр Марин, Амалия Мордвинова, Роман Мадянов, Юрий Кузнецов, Зоя Буряк, Владимир Кашпур, Валерий Носик, Юрий Шерстнев
Описание
По одноимённой повести Михаила Афанасьевича Булгакова. Советская Россия, год 1928-й. Профессор зоологии Персиков совершает удивительное открытие: особое облучение способно ускорить развитие зародышей в тысячи раз. При этом живые существа приобретают огромные размеры и становятся агрессивными… Ученому, увы, не удастся завершить свои эксперименты: в дело вмешиваются доблестные органы госбезопасности – научная победа оборачивается катастрофой.
КиноПоиск
Источник/Качество: DVDRip
Формат: AVI
Видео кодек: DivX
Аудио кодек: AC3
Видео: 688x384 (1.79:1), 25 fps, DivX Codec 5.x or 6.x ~2047 kbps avg, 0.31 bit/pixel
Аудио: 48 kHz, AC3 Dolby Digital, 3/2 (L,C,R,l,r) + LFE ch, ~448.00 kbps avg
Общее
Формат : AVI
Формат/Информация : Audio Video Interleave
Профиль формата : OpenDML
Размер файла : 2,05 Гбайт
Продолжительность : 1 ч. 57 м.
Общий поток : 2502 Кбит/сек
Программа кодирования : VirtualDubMod 1.5.10.2 (build 2540/release)
Библиотека кодирования : VirtualDubMod build 2540/release
Видео
Идентификатор : 0
Формат : MPEG-4 Visual
Параметр BVOP формата : 1
Параметр QPel формата : Нет
Параметр GMC формата : Без точки перехода
Параметр матрицы формата : Default (H.263)
Режим смешивания : Сжатый битовый поток
Идентификатор кодека : DX50
Идентификатор кодека/Подсказка : DivX 5
Продолжительность : 1 ч. 57 м.
Битрейт : 2041 Кбит/сек
Ширина : 688 пикселей
Высота : 384 пикселя
Соотношение сторон : 16:9
Частота кадров : 25,000 кадров/сек
Цветовое пространство : YUV
Субдискретизация насыщенности : 4:2:0
Битовая глубина : 8 бит
Тип развёртки : Прогрессивная
Метод сжатия : С потерями
Бит/(Пиксели*Кадры) : 0.309
Размер потока : 1,67 Гбайт (82%)
Библиотека кодирования : DivX 6.2.5 (UTC 2006-07)
Аудио
Идентификатор : 1
Формат : AC-3
Формат/Информация : Audio Coding 3
Расширение режима : CM (complete main)
Идентификатор кодека : 2000
Продолжительность : 1 ч. 57 м.
Вид битрейта : Постоянный
Битрейт : 448 Кбит/сек
Каналы : 6 каналов
Расположение каналов : Front: L C R, Side: L R, LFE
Частота : 48,0 КГц
Битовая глубина : 16 бит
Метод сжатия : С потерями
Размер потока : 376 Мбайт (18%)
Выравнивание : Разделение по промежуткам
Продолжительность промежутка : 40 мс. (1,00 видеокадр)
Время предзагрузки промежутка : 500 мс.
Download / Скачать

Хотите скачать бесплатно? Зарегистрируйтесь на сайте (ссылка на регистрацию). Pirat.ca - самый быстрый торрент трекер в рунете!

Как скачивать  ·   Что такое торрент  ·   Рейтинг и ограничения

Пост 02-Июн-2012 11:32 (спустя 39 минут)

Топик был перенесен из форума Наше Кино в форум Российские фильмы

zyyx
 

antis1962

Корсар

Пост 24-Авг-2012 00:01 (спустя 2 месяца 21 день)

[Q] 

СПАСИБО!!!
[Профиль]  [ЛС] 

SagaChiga

Штурман

Пост 14-Сен-2012 23:41 (спустя 21 день)

[Q] 

Спасибо, раздающему!
Актеры собраны замечательные, но фильм абсолютное фуфло
[Профиль]  [ЛС] 

Alexe10

Гроза морей

36

Пост 15-Дек-2013 07:07 (спустя 1 год 3 месяца)

[Q] 

Автору респект!!!
[Профиль]  [ЛС] 
Показать сообщения:    
Ответить на тему

Текущее время: Сегодня 14:34

Часовой пояс: GMT + 4



Вы не можете начинать темы
Вы не можете отвечать на сообщения
Вы не можете редактировать свои сообщения
Вы не можете удалять свои сообщения
Вы не можете голосовать в опросах
Вы не можете прикреплять файлы к сообщениям
Вы не можете скачивать файлы

▼ Вниз