ML
     
  Уважаемый Гость!
Вы можете поддержать проект и зарегистрироваться у наших партнеров - онлайн-стратегия MyLands. При регистрации в игре Вы получите код, который сможете активировать после регистрации на pirat.ca и получить 1000 дублонов.

Ваш код:
2fd4e750dd89cae3a36ea360f2b345ccfeb562d3
 
     

Свидание (Юсуп Бахшиев) [2012 г., комедия, BDRip] (Лицензия)

Ответить на тему
 
Автор
Сообщение

Пост 05-Июн-2012 12:50

[Q] 

UA4HQW

Флибустьер

Свидание
Год выпуска: 2012
Производство: Россия
Жанр: комедия
Продолжительность: 01:23:31
Перевод: не требуется (лицензия)
Режиссер: Юсуп Бахшиев
В ролях
Владимир Кристовский, Екатерина Климова, Сергей Бадюк, Алёна Бабенко, Константин Мурзенко, Андрей Кайков, Григорий Сиятвинда, Нелли Неведина, Ольга Карпович, Геннадий Венгеров
Описание
Молодой, неженатый, преуспевающий хирург Дмитрий Горин по совету сестры назначает свидание ее подруге — привлекательной учительнице Ане Светловой. Прекрасное создание, попав под действие алкоголя, на деловом обеде, столь важном для Дмитрия, теряет над собой контроль, и торжественное мероприятие превращается в кошмар.
В довершение ко всему преследуемый похожим на Терминатора поклонником Ани, Дима остается без работы, любимого мотоцикла и ему грозит тюремное заключение. Начавшись столь невинно, свидание превращается в бесконечную череду комичных ситуаций, погонь и драк, что, впрочем, не помешает возникшим чувствам перерасти в настоящую любовь.
Сэмпл , КиноПоиск
Источник/Качество: BDRip
Формат: AVI
Видео кодек: XviD
Аудио кодек: AC3
Видео: 720x304 (2.37:1), 25.000 fps, XviD build 72 ~2029 kbps avg, 0.37 bit/pixel
Аудио: 48 kHz, AC3 Dolby Digital, 3/2 (L,C,R,l,r) + LFE ch, ~448 kbps avg
Общее
Полное имя : Svidanie.2012.RUS.BDRip.XviD.avi
Формат : AVI
Формат/Информация : Audio Video Interleave
Размер файла : 1,45 Гбайт
Продолжительность : 1 ч. 23 м.
Общий поток : 2487 Кбит/сек
Название фильма : Свидание (2012) BDRip
Жанр : комедия
Программа кодирования : VirtualDubMod 1.5.10.2 (build 2540/release)
Видео
Идентификатор : 0
Формат : MPEG-4 Visual
Профиль формата : Advanced [email protected]
Параметр BVOP формата : 1
Параметр QPel формата : Нет
Параметр GMC формата : Без точки перехода
Параметр матрицы формата : Выборочная
Идентификатор кодека : XVID
Идентификатор кодека/Подсказка : XviD
Продолжительность : 1 ч. 23 м.
Битрейт : 2030 Кбит/сек
Ширина : 720 пикс.
Высота : 304 пикс.
Соотношение сторон : 2,35:1
Частота кадров : 25,000 кадр/сек
Цветовое пространство : YUV
Подвыборка цветности : 4:2:0
Битовая глубина : 8 бит
Тип развёртки : Прогрессивная
Метод сжатия : С потерями
Бит/(Пиксели*Кадры) : 0.371
Размер потока : 1,18 Гбайт (82%)
Библиотека кодирования : XviD 72
Аудио
Идентификатор : 1
Формат : AC-3
Формат/Информация : Audio Coding 3
Расширение режима : CM (complete main)
Идентификатор кодека : 2000
Продолжительность : 1 ч. 23 м.
Вид битрейта : Постоянный
Битрейт : 448 Кбит/сек
Каналы : 6 каналов
Расположение каналов : Front: L C R, Side: L R, LFE
Частота : 48,0 КГц
Битовая глубина : 16 бит
Метод сжатия : С потерями
Размер потока : 268 Мбайт (18%)
Выравнивание : Разделение по промежуткам
Продолжительность промежутка : 40 мс. (1,00 видеокадр)
Время предзагрузки промежутка : 500 ms
Download / Скачать

Хотите скачать бесплатно? Зарегистрируйтесь на сайте (ссылка на регистрацию). Pirat.ca - самый быстрый торрент трекер в рунете!

Как скачивать  ·   Что такое торрент  ·   Рейтинг и ограничения

nadabibak

Гроза морей

Пост 05-Июн-2012 13:37 (спустя 47 минут)

[Q] 

Климова хороша лишь ногами. Для отечественного современного кинематографа это более чем достаточно
[Профиль]  [ЛС] 

Cale Laurea

Морской Волк

144

Пост 05-Июн-2012 14:27 (спустя 50 минут)

[Q] 

не знаю даже, стоит ли смотреть
[Профиль]  [ЛС] 

bigden1974

Шкипер

Пост 06-Июн-2012 00:24 (спустя 9 часов)

[Q] 

несмотря на низкие оценки кинокритиков фильм хороший добрый. климова и крестовский конечно не бесинджер и уйллис но тоже смотрятся неплохо. удивил бадюк
[Профиль]  [ЛС] 

anonymoys

Гроза морей

901

Пост 06-Июн-2012 06:09 (спустя 5 часов)

[Q] 

[Профиль]  [ЛС] 

citrus

Морской Волк

Пост 06-Июн-2012 07:30 (спустя 1 час 21 минута)

[Q] 

Посмотрим, что наснимали...
[Профиль]  [ЛС] 

CheGem

Штурман

Пост 19-Июн-2012 09:37 (спустя 13 дней)

[Q] 

[Профиль]  [ЛС] 

Пост 14-Июл-2012 15:07 (спустя 25 дней)

Топик был перенесен из форума Новинки (HD|DVD|BD|TV|SAT|PDTV| - Rips) в форум Российские фильмы

erchine
 

zara0013

Лоцман

Пост 15-Июл-2012 03:01 (спустя 25 дней)

[Q] 

spasibo
[Профиль]  [ЛС] 

Dmitry62

Лоцман

Пост 30-Ноя-2012 21:21 (спустя 4 месяца 15 дней)

[Q] 

ПАСИБ!
[Профиль]  [ЛС] 

krendel1973

Флибустьер

Пост 14-Фев-2013 09:33 (спустя 2 месяца 13 дней)

[Q] 

[Профиль]  [ЛС] 

Sergi4

Гроза морей

Пост 18-Фев-2013 13:25 (спустя 4 дня)

[Q] 

[Профиль]  [ЛС] 

дроу

Штурман

Пост 05-Янв-2015 12:54 (спустя 1 год 10 месяцев)

[Q] 

Ндя. Хоть бы указывали, что переделка. И близко не лежало с оригиналом :(
[Профиль]  [ЛС] 
Показать сообщения:    
Ответить на тему

Текущее время: Сегодня 14:12

Часовой пояс: GMT + 4



Вы не можете начинать темы
Вы не можете отвечать на сообщения
Вы не можете редактировать свои сообщения
Вы не можете удалять свои сообщения
Вы не можете голосовать в опросах
Вы не можете прикреплять файлы к сообщениям
Вы не можете скачивать файлы

▼ Вниз