ML
     
  Уважаемый Гость!
Вы можете поддержать проект и зарегистрироваться у наших партнеров - онлайн-стратегия MyLands. При регистрации в игре Вы получите код, который сможете активировать после регистрации на pirat.ca и получить 1000 дублонов.

Ваш код:
dbd0d701284cde74a1f34d06ce20b7bc75a73e75
 
     

Отель для Золушки (Сергей Гиргель) [2012 г., мелодрама, SATRip]

Ответить на тему
 
Автор
Сообщение

Пост 06-Июн-2012 12:07

[Q] 

UA4HQW

Флибустьер

Отель для Золушки
Год выпуска: 2012
Производство: Россия, Продюсерская компания "Медиапрофсоюз"
Жанр: мелодрама
Продолжительность: 01:42:45
Российская премьера: 3 июня 2012 (Россия-1)
Режиссер: Сергей Гиргель
В ролях
Олеся Фаттахова, Руслан Чернецкий, Евгения Кульбачная, Виктория Жбанкова, Юлия Михневич, Игорь Николаев (V), Денис Моисейчик, Светлана Аникей, Андрей Карако, Александр Островский
Описание
История, похожая на эту, родилась много веков назад и с тех пор живет и живет. Можно было бы назвать ее сказочной, но чего только в жизни не случается. Для тех, кто надеется, любит и верит, чудеса становятся возможными даже в современном мире. Это кажется нереальным, но принцы все-таки существуют. Однако, чтобы распознать его, настоящего принца, нужно быть очень внимательным к людям, а чтобы стать принцессой, необходимо чистое сердце, смелость и немного реального волшебства...
В небольшом российском городке жила-была девушка, в судьбе которой к 20 годам произошло не мало бед. Она выросла без матери, а позже потеряла и отца. И пришлось ей жить с недоброй мачехой и сводной сестрицей. Но Надя любила отца и стремилась осуществить их общую мечту. И вот однажды...
В отель, где Надя работала горничной, приехал бизнесмен. Но разве станет богатый и успешный молодой человек обращать внимание на скромную горничную? Немного чуда или нелепых случайностей для этого точно не помешает. Но еще больше волшебных совпадений понадобится, чтобы попасть на бал, а точнее на прием к мэру. Это история о приключениях юной горничной, о настоящей любви и превращении из Золушки в Принцессу.
КиноПоиск, Сэмпл
Источник/Качество: SATRip
Формат: AVI
Видео кодек: DivX
Аудио кодек: MP3
Видео: 720x400 (1.80:1), 25 fps, DivX Codec 5.x or 6.x ~1749 kbps avg, 0.24 bit/pixel
Аудио: 44.100 kHz, MPEG Layer 3, 2 ch, ~128.00 kbps avg
Общее
Полное имя : Hotel.dlya.zolyshki.2012.SATRip.avi
Формат : AVI
Формат/Информация : Audio Video Interleave
Размер файла : 1,35 Гбайт
Продолжительность : 1 ч. 42 м.
Общий поток : 1888 Кбит/сек
Библиотека кодирования : VirtualDub build 18160/release
Видео
Идентификатор : 0
Формат : MPEG-4 Visual
Параметр BVOP формата : 1
Параметр QPel формата : Нет
Параметр GMC формата : Без точки перехода
Параметр матрицы формата : Default (H.263)
Режим смешивания : Сжатый битовый поток
Идентификатор кодека : DX50
Идентификатор кодека/Подсказка : DivX 5
Продолжительность : 1 ч. 42 м.
Битрейт : 1750 Кбит/сек
Ширина : 720 пикс.
Высота : 400 пикс.
Соотношение сторон : 16:9
Частота кадров : 25,000 кадр/сек
Цветовое пространство : YUV
Подвыборка цветности : 4:2:0
Битовая глубина : 8 бит
Тип развёртки : Прогрессивная
Метод сжатия : С потерями
Бит/(Пиксели*Кадры) : 0.243
Размер потока : 1,26 Гбайт (93%)
Библиотека кодирования : DivX 3013
Аудио
Идентификатор : 1
Формат : MPEG Audio
Версия формата : Version 1
Профиль формата : Layer 3
Идентификатор кодека : 55
Идентификатор кодека/Подсказка : MP3
Продолжительность : 1 ч. 42 м.
Вид битрейта : Постоянный
Битрейт : 128 Кбит/сек
Каналы : 2 канала
Частота : 44,1 КГц
Метод сжатия : С потерями
Размер потока : 94,1 Мбайт (7%)
Выравнивание : Разделение по промежуткам
Продолжительность промежутка : 40 мс. (1,00 видеокадр)
Время предзагрузки промежутка : 500 ms
Download / Скачать

Хотите скачать бесплатно? Зарегистрируйтесь на сайте (ссылка на регистрацию). Pirat.ca - самый быстрый торрент трекер в рунете!

Как скачивать  ·   Что такое торрент  ·   Рейтинг и ограничения



Последний раз редактировалось: UA4HQW (2012-06-06 13:17), всего редактировалось 2 раз(а)

Пост 06-Июн-2012 14:01 (спустя 1 час 53 минуты)

Топик был перенесен из форума Наше Кино в форум Новинки (HD|DVD|BD|TV|SAT|PDTV| - Rips)

erchine
 

nadabibak

Гроза морей

Пост 06-Июн-2012 23:02 (спустя 10 часов)

[Q] 

Благодарность раздающему.
[Профиль]  [ЛС] 

dedmazai55

Морской Волк

Пост 09-Июн-2012 21:06 (спустя 2 дня 22 часа)

[Q] 

Посмотрим
[Профиль]  [ЛС] 

dedmazai55

Морской Волк

Пост 15-Июн-2012 13:00 (спустя 5 дней)

[Q] 

Посмотрел.Фильм средненький,на один раз и то на любителя au
[Профиль]  [ЛС] 

Пост 14-Июл-2012 15:07 (спустя 29 дней)

Топик был перенесен из форума Новинки (HD|DVD|BD|TV|SAT|PDTV| - Rips) в форум Российские фильмы

erchine
 
Показать сообщения:    
Ответить на тему

Текущее время: Сегодня 18:33

Часовой пояс: GMT + 4



Вы не можете начинать темы
Вы не можете отвечать на сообщения
Вы не можете редактировать свои сообщения
Вы не можете удалять свои сообщения
Вы не можете голосовать в опросах
Вы не можете прикреплять файлы к сообщениям
Вы не можете скачивать файлы

▼ Вниз