ML
     
  Уважаемый Гость!
Вы можете поддержать проект и зарегистрироваться у наших партнеров - онлайн-стратегия MyLands. При регистрации в игре Вы получите код, который сможете активировать после регистрации на pirat.ca и получить 1000 дублонов.

Ваш код:
74c28610d77aaac24ba694c4128f3b9b46b04220
 
     

Парк советского периода (Юлий Гусман) [2006 г., Комедия, драма, DVDRip]

Ответить на тему
 
Автор
Сообщение

Пост 06-Июн-2012 15:38

[Q] 

megamastor

Парк советского периода
Год выпуска: 2006
Российская премьера: 7 ноября 2006
Дата выхода DVD: 16 декабря 2008
Производство: Продюсерская компания Слово
Жанр: Комедия, драма
Продолжительность: 02:05:41
Режиссер: Юлий Гусман
В ролях
Александр Лазарев-мл., Елизавета Боярская, Михаил Ефремов, Александр Дзюба, Лидия Федосеева-Шукшина, Нина Усатова, Александр Пашутин, Владимир Долинский, Сергей Никоненко, Алексей Булдаков, Валерий Баринов, Станислав Садальский, Рафаэль Мукаев, Владимир Зельдин, Владимир Этуш, Александр Абдулов, Полад Бюль-Бюль Оглы, Зиновий Высоковский, Елена Ханга, Владимир Соловьев, Клара Лучко, Игорь Кириллов, Анатолий Карпов, Иосиф Кобзон
Описание
Главный герой - Олег Зимин - знаменитый ведущий, автор культового шоу, которое смотрит вся страна. Чтобы немного отключиться от суеты мегаполиса он принимает предложение отдохнуть в заповеднике - смеси Диснейленда и ВДНХ. Взамен Олег должен сделать репортаж. Парк Советского периода - это парк удивительной красоты, чистоты и ухоженности. Это парк высокой культуры обслуживания и высоких технологий… Здесь за Вами будут ухаживать так, как если Вы были членом правительства или космонавтом. К Вашим услугам - аттракцион "Целина", где Вы будете мокнуть под "настоящим" проливным дождем, или реальный полет в космос - со всеми причитающимися космонавту перегрузками. А может быть, Вы хотите стать узником Гулага? И это тоже возможно. Сотрудники Парка Советского периода готовы выполнить любое из Ваших желаний!
КиноПоиск
Источник/Качество: DVDRip
Формат: AVI
Видео кодек: XviD
Аудио кодек: AC3
Видео: 688x368 (1.87:1), 25 fps, XviD MPEG-4, 1877 kbps avg, 0.30 bit/pixel
Аудио: 48 kHz, AC3 Dolby Digital, 3/2 (L,C,R,l,r) + LFE ch, 448 kbps
Общее
Формат : AVI
Формат/Информация : Audio Video Interleave
Профиль формата : OpenDML
Размер файла : 2,05 Гбайт
Продолжительность : 2 ч. 5 м.
Общий поток : 2333 Кбит/сек
Библиотека кодирования : The best and REALLY easy backup tool
Видео
Идентификатор : 0
Формат : MPEG-4 Visual
Профиль формата : Advanced [email protected]
Параметр BVOP формата : 1
Параметр QPel формата : Нет
Параметр GMC формата : Без точки перехода
Параметр матрицы формата : Default (H.263)
Режим смешивания : Сжатый битовый поток
Идентификатор кодека : XVID
Идентификатор кодека/Подсказка : XviD
Продолжительность : 2 ч. 5 м.
Битрейт : 1872 Кбит/сек
Ширина : 688 пикселей
Высота : 368 пикселей
Соотношение сторон : 1,870
Частота кадров : 25,000 кадров/сек
Цветовое пространство : YUV
Субдискретизация насыщенности : 4:2:0
Битовая глубина : 8 бит
Тип развёртки : Прогрессивная
Метод сжатия : С потерями
Бит/(Пиксели*Кадры) : 0.296
Размер потока : 1,64 Гбайт (80%)
Библиотека кодирования : XviD 1.1.0 (UTC 2005-11-22)
Аудио
Идентификатор : 1
Формат : AC-3
Формат/Информация : Audio Coding 3
Расширение режима : CM (complete main)
Идентификатор кодека : 2000
Продолжительность : 2 ч. 5 м.
Вид битрейта : Постоянный
Битрейт : 448 Кбит/сек
Каналы : 6 каналов
Расположение каналов : Front: L C R, Side: L R, LFE
Частота : 48,0 КГц
Битовая глубина : 16 бит
Метод сжатия : С потерями
Размер потока : 403 Мбайт (19%)
Выравнивание : Разделение по промежуткам
Продолжительность промежутка : 40 мс. (1,00 видеокадр)
Время предзагрузки промежутка : 500 мс.
Download / Скачать

Хотите скачать бесплатно? Зарегистрируйтесь на сайте (ссылка на регистрацию). Pirat.ca - самый быстрый торрент трекер в рунете!

Как скачивать  ·   Что такое торрент  ·   Рейтинг и ограничения

Пост 06-Июн-2012 15:51 (спустя 12 минут)

Топик был перенесен из форума Наше Кино в форум Российские фильмы

zyyx
 

wic777

Корсар

Пост 06-Июн-2012 16:57 (спустя 1 час 19 минут)

[Q] 

[Профиль]  [ЛС] 

nadabibak

Гроза морей

Пост 06-Июн-2012 23:01 (спустя 6 часов)

[Q] 

Советское всегда лучшее
[Профиль]  [ЛС] 

ZlobiN

Корсар

Пост 12-Июн-2012 22:45 (спустя 5 дней)

[Q] 

[Профиль]  [ЛС] 
Показать сообщения:    
Ответить на тему

Текущее время: Сегодня 09:54

Часовой пояс: GMT + 4



Вы не можете начинать темы
Вы не можете отвечать на сообщения
Вы не можете редактировать свои сообщения
Вы не можете удалять свои сообщения
Вы не можете голосовать в опросах
Вы не можете прикреплять файлы к сообщениям
Вы не можете скачивать файлы

▼ Вниз