ML
     
  Уважаемый Гость!
Вы можете поддержать проект и зарегистрироваться у наших партнеров - онлайн-стратегия MyLands. При регистрации в игре Вы получите код, который сможете активировать после регистрации на pirat.ca и получить 1000 дублонов.

Ваш код:
4855957e17f50c5c1236a0f8c4492b2b0bba00a0
 
     

Отставник 3 (Игорь Москвитин) [2011 г., Боевик, Криминал, DVDRip]

Ответить на тему
 
Автор
Сообщение

Пост 06-Июн-2012 18:49

[Q] 

Amethyst

Отставник 3 Год выпуска: 2011
Российская премьера: 23 декабря 2011
Дата выхода DVD: 27 марта 2012, «Компания WWW.RECORDS»
Производство: Россия, Триикс Медиагруп
Жанр: Боевик, Криминал
Продолжительность: 01:31:16
Режиссер: Игорь Москвитин
В ролях
Борис Галкин, Валерий Доронин, Александр Рязанцев, Юлия Рудина, Елена Радевич
Описание
Однажды, пройдя медобследование, Дед получил путевку в пансионат, но решил отдать ее тому, кому она нужнее, — своему другу-инвалиду Каверину. Тот, приехав в санаторий, стал свидетелем, как двое крепких парней силой затаскивают в машину молодую девушку. Каверин попытался вступиться за бедняжку, но его избили и бросили прямо на дороге. Случайные прохожие доставили его в больницу, а врачи, увидев военный жетон, запросили данные в Москве. Так о происшествии стало известно Дедову, который тотчас отправился искать бандитов, чтобы отомстить за друга.

Источник/Качество: DVDRip
Формат: AVI
Видео кодек: XviD
Аудио кодек: AC3
Видео: XviD, 720x400, 1689 kb/s, 25.000 fps
Аудио: AC-3, 6 ch, 448 Кбит/с, 48.0 kHz
Общее
Полное имя : D:\Торенты\Otstavnik.3.2011.XviD.DVDRip.avi
Формат : AVI
Формат/Информация : Audio Video Interleave
Размер файла : 1,37 Гбайт
Продолжительность : 1 ч. 31 м.
Общий поток : 2147 Кбит/сек
Программа кодирования : VirtualDubMod 1.5.10.3 | www.virtualdub-fr.org || (build 2550/release)
Библиотека кодирования : VirtualDubMod build 2550/release
Видео
Идентификатор : 0
Формат : MPEG-4 Visual
Профиль формата : Advanced [email protected]
Параметр BVOP формата : 2
Параметр QPel формата : Нет
Параметр GMC формата : Без точки перехода
Параметр матрицы формата : Default (MPEG)
Идентификатор кодека : XVID
Идентификатор кодека/Подсказка : XviD
Продолжительность : 1 ч. 31 м.
Битрейт : 1689 Кбит/сек
Ширина : 720 пикселей
Высота : 400 пикселей
Соотношение сторон : 16:9
Частота кадров : 25,000 кадров/сек
Цветовое пространство : YUV
Субдискретизация насыщенности : 4:2:0
Битовая глубина : 8 бит
Тип развёртки : Прогрессивная
Метод сжатия : С потерями
Бит/(Пиксели*Кадры) : 0.235
Размер потока : 1,08 Гбайт (79%)
Библиотека кодирования : XviD 1.2.1 (UTC 2008-12-04)
Аудио
Идентификатор : 1
Формат : AC-3
Формат/Информация : Audio Coding 3
Расширение режима : CM (complete main)
Идентификатор кодека : 2000
Продолжительность : 1 ч. 31 м.
Вид битрейта : Постоянный
Битрейт : 448 Кбит/сек
Каналы : 6 каналов
Расположение каналов : Front: L C R, Side: L R, LFE
Частота : 48,0 КГц
Битовая глубина : 16 бит
Метод сжатия : С потерями
Размер потока : 292 Мбайт (21%)
Выравнивание : Разделение по промежуткам
Продолжительность промежутка : 40 мс. (1,00 видеокадр)
Время предзагрузки промежутка : 500 мс.
Download / Скачать

Хотите скачать бесплатно? Зарегистрируйтесь на сайте (ссылка на регистрацию). Pirat.ca - самый быстрый торрент трекер в рунете!

Как скачивать  ·   Что такое торрент  ·   Рейтинг и ограничения

Пост 06-Июн-2012 19:52 (спустя 1 час 2 минуты)

Топик был перенесен из форума Наше Кино в форум Новинки (HD|DVD|BD|TV|SAT|PDTV| - Rips)

zyyx
 

anonymoys

Гроза морей

901

Пост 06-Июн-2012 20:40 (спустя 1 час 50 минут)

[Q] 

[Профиль]  [ЛС] 

nadabibak

Гроза морей

Пост 06-Июн-2012 22:32 (спустя 1 час 52 минуты)

[Q] 

Посмотрим. Спасибо за раздачу.
[Профиль]  [ЛС] 

got70

Легенда

752

Пост 07-Июн-2012 06:50 (спустя 8 часов)

[Q] 


_________________
Добро непременно победит зло!Непременно...Затем поставит на колени,и зверски УБЬЁТ!
[Профиль]  [ЛС] 

Boks

Штурман

Пост 07-Июн-2012 07:59 (спустя 1 час 9 минут)

[Q] 

[Профиль]  [ЛС] 

Decter

Корсар

Пост 07-Июн-2012 10:38 (спустя 2 часа 39 минут)

[Q] 

Респект!
[Профиль]  [ЛС] 

leshiii

Лоцман

Пост 08-Июн-2012 14:10 (спустя 1 день 3 часа)

[Q] 

спасибо
[Профиль]  [ЛС] 

KOS1612

Корсар

Пост 28-Июн-2012 20:24 (спустя 20 дней)

[Q] 

[Профиль]  [ЛС] 

ka1iostro

Корсар

Пост 29-Июн-2012 21:20 (спустя 1 день)

[Q] 

[Профиль]  [ЛС] 

Kostaman1

Лоцман

Пост 29-Июн-2012 21:26 (спустя 5 минут)

[Q] 

спасибо
[Профиль]  [ЛС] 

pokermike299

Корсар

Пост 03-Июл-2012 00:46 (спустя 3 дня)

[Q] 

задолбали спасибами и респектами кто нить напишет как кино?
[Профиль]  [ЛС] 

frbreeze

Лоцман

Пост 06-Июл-2012 04:19 (спустя 3 дня)

[Q] 

Присоединяюсь к предыдущему оратору! :D
[Профиль]  [ЛС] 

allexxxv

Морской Волк

Пост 21-Окт-2012 10:29 (спустя 3 месяца 15 дней)

[Q] 

Посмотрим.
[Профиль]  [ЛС] 
Показать сообщения:    
Ответить на тему

Текущее время: Сегодня 06:13

Часовой пояс: GMT + 4



Вы не можете начинать темы
Вы не можете отвечать на сообщения
Вы не можете редактировать свои сообщения
Вы не можете удалять свои сообщения
Вы не можете голосовать в опросах
Вы не можете прикреплять файлы к сообщениям
Вы не можете скачивать файлы

▼ Вниз