ML
     
  Уважаемый Гость!
Вы можете поддержать проект и зарегистрироваться у наших партнеров - онлайн-стратегия MyLands. При регистрации в игре Вы получите код, который сможете активировать после регистрации на pirat.ca и получить 1000 дублонов.

Ваш код:
2a3da67fd641d69eeebb7cb965232435a70eaa24
 
     

Калачи (Нурбек Эген) [2011 г., комедия, DVDRip](лицензия)

Ответить на тему
 
Автор
Сообщение

Пост 10-Июн-2012 19:56

[Q] 

Vlad.84

Штурман

Калачи
-Год выпуска: 2011
Российская премьера: 15 сентября 2011, «СаундМФ»
Производство: Россия
Жанр: комедия
Продолжительность: 01:20:35
Режиссер: Нурбек Эген
В ролях
Владимир Ильин, Ирина Купченко, Армен Мурадян, Федор Добронравов, Андрей Назимов, Виктория Романенко, Светлана Пермякова
Описание
Егорка Калач — парень из казачьей семьи. Испокон веку Калачи занимались тем, что доблестно служили Отечеству. Когда вдруг выясняется, что Егорка единственный, кому не пришла повестка в армию, это становится ударом для всей семьи. Калачи добиваются справедливости. И в итоге совершенно случайно Егорка попадает не в простой полк, а в Кремлевский. Соседи Калачей этому не верят и требуют подтверждений — например, фото, где был бы изображен Егорка и Президент. Справится ли Егор с заданием?- -Источник/Качество: DVDRip
Формат: AVI
Видео кодек: XviD
Аудио кодек: AC3
Видео: 720x400, 25.000 fps, XviD, 2229 Kbps
Аудио: AC3, 192 Kbps, 48.0 KHz, 2 ch
General
Complete name : Kalachi_2011.DVDRip.avi
Format : AVI
Format/Info : Audio Video Interleave
File size : 1.37 GiB
Duration : 1h 20mn
Overall bit rate : 2 432 Kbps
Movie name : Kalachi.2011.O.DVDRip
Genre : Comedy
Writing application : VirtualDubMod 1.5.10.3 (build 2550/release)
Original source form/Name : Movie
Video
ID : 0
Format : MPEG-4 Visual
Format profile : Advanced [email protected]
Format settings, BVOP : Yes
Format settings, QPel : No
Format settings, GMC : No warppoints
Format settings, Matrix : Custom
Codec ID : XVID
Codec ID/Hint : XviD
Duration : 1h 20mn
Bit rate : 2 230 Kbps
Width : 720 pixels
Height : 400 pixels
Display aspect ratio : 16:9
Frame rate : 25.000 fps
Color space : YUV
Chroma subsampling : 4:2:0
Bit depth : 8 bits
Scan type : Progressive
Bits/(Pixel*Frame) : 0.310
Stream size : 1.26 GiB (92%)
Writing library : XviD 1.2.1 (UTC 2008-12-04)
Audio
ID : 1
Format : AC-3
Format/Info : Audio Coding 3
Mode extension : CM (complete main)
Codec ID : 2000
Duration : 1h 20mn
Bit rate mode : Constant
Bit rate : 192 Kbps
Channel(s) : 2 channels
Channel positions : Front: L R
Sampling rate : 48.0 KHz
Bit depth : 16 bits
Stream size : 111 MiB (8%)
Alignment : Split accross interleaves
Interleave, duration : 40 ms (1.00 video frame)
Interleave, preload duration : 500 ms
Download / Скачать

Хотите скачать бесплатно? Зарегистрируйтесь на сайте (ссылка на регистрацию). Pirat.ca - самый быстрый торрент трекер в рунете!

Как скачивать  ·   Что такое торрент  ·   Рейтинг и ограничения

Пост 10-Июн-2012 20:14 (спустя 17 минут)

Топик был перенесен из форума Наше Кино в форум Российские фильмы

erchine
 

nadabibak

Гроза морей

Пост 10-Июн-2012 20:24 (спустя 27 минут)

[Q] 

Спасибо, посмотрим, заценим.
[Профиль]  [ЛС] 

polozm

Легенда

Пост 12-Июн-2012 09:08 (спустя 1 день 12 часов)

[Q] 

такое даунское описание и такой рейтинг !!!нее понимаааю bk be cs

_________________
mac mini -2.0 GHz Intel Core i7/ 8 GB DDR3. /Intel HD 3000(512mb)OS X 10.9 Mavericks
[Профиль]  [ЛС] 

yam672

Корсар

Пост 14-Июн-2012 11:25 (спустя 2 дня 2 часа)

[Q] 

посмотрим,
[Профиль]  [ЛС] 

петрович6607

Штурман

Пост 18-Июн-2012 15:46 (спустя 4 дня)

[Q] 

хороший фильм ,описание даунское.
[Профиль]  [ЛС] 

FeudorM

Корсар

Пост 19-Июн-2012 19:41 (спустя 1 день 3 часа)

[Q] 

[Профиль]  [ЛС] 
Показать сообщения:    
Ответить на тему

Текущее время: Сегодня 01:15

Часовой пояс: GMT + 4



Вы не можете начинать темы
Вы не можете отвечать на сообщения
Вы не можете редактировать свои сообщения
Вы не можете удалять свои сообщения
Вы не можете голосовать в опросах
Вы не можете прикреплять файлы к сообщениям
Вы не можете скачивать файлы

▼ Вниз