Уважаемый Гость!
Вы можете поддержать проект и зарегистрироваться у наших партнеров - онлайн-стратегия MyLands. При регистрации в игре Вы получите код, который сможете активировать после регистрации на pirat.ca и получить 1000 дублонов.

Ваш код:
6e74277781110e9b49c3c0dd24e1bed54391613e
 
     

(Electronic) Deadmau5 - For Lack of a Better Name - 2009, M4A (ALAC) (tracks) , lossless

Ответить на тему
 
Автор
Сообщение

Пост 29-Июн-2012 11:05

[Q] 

Igoryok96

Шкипер

Deadmau5 - For Lack of a Better Name
Год выпуска: 2009
Страна: Канада
Жанр: Electronic
Лейбл издания: Virgin
Тип альбома: CD, Album, Mixed, Digipak
Страна-выпуска диска: Europe
Номер по каталогу: 5099968792824
Продолжительность: 01:05:58
Источник (релизер): Неизвестно
Формат: M4A (ALAC), Apple Lossless
Битрейт аудио: lossless
Тип рипа: tracks
Наличие сканов в содержимом раздачи: нет
[06:44] 01. Deadmau5 - FML
[04:37] 02. Deadmau5 - Moar Ghosts 'n' Stuff
[03:00] 03. Deadmau5 - Ghosts 'n' Stuff (Featuring Rob Swire)
[05:15] 04. Deadmau5 - Hi Friend! (Featuring MC Flipside)
[05:39] 05. Deadmau5 - Bot
[07:17] 06. Deadmau5 - Word Problems
[06:23] 07. Deadmau5 - Soma
[06:28] 08. Deadmau5 - Lack Of A Better Name
[10:00] 09. Deadmau5 - The 16th Hour
[10:35] 10. Deadmau5 - Strobe
Exact Audio Copy V0.99 prebeta 5 from 4. May 2009
EAC extraction logfile from 17. December 2009, 19:45
Deadmau5 / For Lack of a Better Name
Used drive : HL-DT-STDVDRAM GH15F Adapter: 3 ID: 2
Read mode : Secure
Utilize accurate stream : Yes
Defeat audio cache : Yes
Make use of C2 pointers : No
Read offset correction : 667
Overread into Lead-In and Lead-Out : No
Fill up missing offset samples with silence : Yes
Delete leading and trailing silent blocks : No
Null samples used in CRC calculations : Yes
Used interface : Native Win32 interface for Win NT & 2000
Gap handling : Appended to previous track
Used output format : User Defined Encoder
Selected bitrate : 128 kBit/s
Quality : High
Add ID3 tag : No
Command line compressor : C:\Program Files\Exact Audio Copy\Flac\flac.exe
Additional command line options : -V -8 -T "artist=%a" -T "title=%t" -T "album=%g" -T "date=%y" -T "tracknumber=%n" -T "genre=%m" %s
TOC of the extracted CD
Track | Start | Length | Start sector | End sector
---------------------------------------------------------
1 | 0:00.00 | 6:43.70 | 0 | 30294
2 | 6:43.70 | 4:37.05 | 30295 | 51074
3 | 11:21.00 | 3:00.15 | 51075 | 64589
4 | 14:21.15 | 5:14.68 | 64590 | 88207
5 | 19:36.08 | 5:38.57 | 88208 | 113614
6 | 25:14.65 | 7:16.63 | 113615 | 146377
7 | 32:31.53 | 6:23.34 | 146378 | 175136
8 | 38:55.12 | 6:27.53 | 175137 | 204214
9 | 45:22.65 | 10:00.22 | 204215 | 249236
10 | 55:23.12 | 10:34.55 | 249237 | 296841
Track 1
Filename C:\Users\Peter\Documents\Waffles uploads\Deadmau5 - For Lack of a Better Name\01 FML.wav
Pre-gap length 0:00:02.00
Peak level 98.0 %
Track quality 100.0 %
Test CRC 93A03915
Copy CRC 93A03915
Accurately ripped (confidence 3) [B5EA05F6]
Copy OK
Track 2
Filename C:\Users\Peter\Documents\Waffles uploads\Deadmau5 - For Lack of a Better Name\02 Moar Ghosts 'n' Stuff.wav
Pre-gap length 0:00:00.21
Peak level 98.0 %
Track quality 100.0 %
Test CRC 9261F673
Copy CRC 9261F673
Accurately ripped (confidence 3) [C837F3EB]
Copy OK
Track 3
Filename C:\Users\Peter\Documents\Waffles uploads\Deadmau5 - For Lack of a Better Name\03 Ghosts 'n' Stuff (Featuring Rob Swire).wav
Pre-gap length 0:00:00.21
Peak level 98.0 %
Track quality 100.0 %
Test CRC F35E1136
Copy CRC F35E1136
Accurately ripped (confidence 3) [5E9F3243]
Copy OK
Track 4
Filename C:\Users\Peter\Documents\Waffles uploads\Deadmau5 - For Lack of a Better Name\04 Hi Friend! (Featuring MC Flipside).wav
Pre-gap length 0:00:00.21
Peak level 98.0 %
Track quality 100.0 %
Test CRC F575A5CB
Copy CRC F575A5CB
Accurately ripped (confidence 3) [B4415AF9]
Copy OK
Track 5
Filename C:\Users\Peter\Documents\Waffles uploads\Deadmau5 - For Lack of a Better Name\05 Bot.wav
Pre-gap length 0:00:00.21
Peak level 98.0 %
Track quality 100.0 %
Test CRC 3F574975
Copy CRC 3F574975
Accurately ripped (confidence 3) [9196113D]
Copy OK
Track 6
Filename C:\Users\Peter\Documents\Waffles uploads\Deadmau5 - For Lack of a Better Name\06 Word Problems.wav
Pre-gap length 0:00:00.21
Peak level 98.0 %
Track quality 100.0 %
Test CRC 02ED65FE
Copy CRC 02ED65FE
Accurately ripped (confidence 3) [A23173EE]
Copy OK
Track 7
Filename C:\Users\Peter\Documents\Waffles uploads\Deadmau5 - For Lack of a Better Name\07 Soma.wav
Pre-gap length 0:00:00.21
Peak level 98.0 %
Track quality 100.0 %
Test CRC AE13CA27
Copy CRC AE13CA27
Accurately ripped (confidence 3) [E967235C]
Copy OK
Track 8
Filename C:\Users\Peter\Documents\Waffles uploads\Deadmau5 - For Lack of a Better Name\08 Lack Of A Better Name.wav
Pre-gap length 0:00:00.21
Peak level 98.0 %
Track quality 100.0 %
Test CRC F33C1107
Copy CRC F33C1107
Accurately ripped (confidence 3) [88E4F643]
Copy OK
Track 9
Filename C:\Users\Peter\Documents\Waffles uploads\Deadmau5 - For Lack of a Better Name\09 The 16th Hour.wav
Pre-gap length 0:00:00.21
Peak level 98.0 %
Track quality 100.0 %
Test CRC 84AEAF91
Copy CRC 84AEAF91
Accurately ripped (confidence 3) [11DA9A30]
Copy OK
Track 10
Filename C:\Users\Peter\Documents\Waffles uploads\Deadmau5 - For Lack of a Better Name\10 Strobe.wav
Pre-gap length 0:00:00.21
Peak level 98.0 %
Track quality 100.0 %
Test CRC 011DB8AE
Copy CRC 011DB8AE
Accurately ripped (confidence 3) [62C4B767]
Copy OK
All tracks accurately ripped
No errors occurred
End of status report
REM GENRE Electronic
REM DATE 2009
REM DISCID 880F750A
REM COMMENT "ExactAudioCopy v0.99pb5"
CATALOG 5099968792824
PERFORMER "Deadmau5"
TITLE "For Lack of a Better Name"
FILE "01 FML.wav" WAVE
TRACK 01 AUDIO
TITLE "FML"
PERFORMER "Deadmau5"
ISRC GBTGD0900133
INDEX 01 00:00:00
TRACK 02 AUDIO
TITLE "Moar Ghosts 'n' Stuff"
PERFORMER "Deadmau5"
ISRC GBTGD0900130
INDEX 00 06:43:49
FILE "02 Moar Ghosts 'n' Stuff.wav" WAVE
INDEX 01 00:00:00
TRACK 03 AUDIO
TITLE "Ghosts 'n' Stuff (Featuring Rob Swire)"
PERFORMER "Deadmau5"
ISRC GBTGD0900132
INDEX 00 04:36:59
FILE "03 Ghosts 'n' Stuff (Featuring Rob Swire).wav" WAVE
INDEX 01 00:00:00
TRACK 04 AUDIO
TITLE "Hi Friend! (Featuring MC Flipside)"
PERFORMER "Deadmau5"
ISRC GBTGD0800025
INDEX 00 02:59:69
FILE "04 Hi Friend! (Featuring MC Flipside).wav" WAVE
INDEX 01 00:00:00
TRACK 05 AUDIO
TITLE "Bot"
PERFORMER "Deadmau5"
ISRC GBTGD0900062
INDEX 00 05:14:47
FILE "05 Bot.wav" WAVE
INDEX 01 00:00:00
TRACK 06 AUDIO
TITLE "Word Problems"
PERFORMER "Deadmau5"
ISRC GBTGD0900058
INDEX 00 05:38:36
FILE "06 Word Problems.wav" WAVE
INDEX 01 00:00:00
TRACK 07 AUDIO
TITLE "Soma"
PERFORMER "Deadmau5"
ISRC GBTGD0900138
INDEX 00 07:16:42
FILE "07 Soma.wav" WAVE
INDEX 01 00:00:00
TRACK 08 AUDIO
TITLE "Lack Of A Better Name"
PERFORMER "Deadmau5"
ISRC GBTGD0900126
INDEX 00 06:23:13
FILE "08 Lack Of A Better Name.wav" WAVE
INDEX 01 00:00:00
TRACK 09 AUDIO
TITLE "The 16th Hour"
PERFORMER "Deadmau5"
ISRC GBTGD0900135
INDEX 00 06:27:32
FILE "09 The 16th Hour.wav" WAVE
INDEX 01 00:00:00
TRACK 10 AUDIO
TITLE "Strobe"
PERFORMER "Deadmau5"
ISRC GBTGD0900141
INDEX 00 10:00:01
FILE "10 Strobe.wav" WAVE
INDEX 01 00:00:00
-----------------------
DON'T MODIFY THIS FILE
-----------------------
PERFORMER: auCDtect Task Manager, ver. 1.5.1RC6 build 1.5.1.7
Copyright (c) 2008-2010 y-soft. All rights reserved
http://y-soft.org
ANALYZER: auCDtect: CD records authenticity detector, version 0.8.2
Copyright (c) 2004 Oleg Berngardt. All rights reserved.
Copyright (c) 2004 Alexander Djourik. All rights reserved.
FILE: 09 The 16th Hour.flac
Size: 64900980 Hash: A3BA4EABD118CE61FB1984BEBC8A5B2F Accuracy: -m0
Conclusion: CDDA 99%
Signature: 723DB6681A9F68C805670E47E988EBF3F3CCD7D2
FILE: 08 Lack Of A Better Name.flac
Size: 40331017 Hash: 74148E773EB78EB61B81D2026F845F5D Accuracy: -m0
Conclusion: CDDA 100%
Signature: 55B83F8EDEE9C14A412E29D00BBD7026197738FD
FILE: 07 Soma.flac
Size: 38641772 Hash: 2C2F16E8F5704C29153F08892DDDD47B Accuracy: -m0
Conclusion: CDDA 100%
Signature: 9E6F9FA99CD2E526490DCEEB945581E21F279032
FILE: 06 Word Problems.flac
Size: 43066678 Hash: A99FAAE0A20266EE5210192C776D566B Accuracy: -m0
Conclusion: CDDA 100%
Signature: 27178983F0923DBB72A71FCA360D5E8E8FBBD66C
FILE: 05 Bot.flac
Size: 39659361 Hash: AA6C8E0C18DB8070B6AA0B80034AB9D0 Accuracy: -m0
Conclusion: CDDA 100%
Signature: 283B22D7162125D2ED20350B5EA16D2CB0B019EB
FILE: 04 Hi Friend! (Featuring MC Flipside).flac
Size: 41847093 Hash: 62918101858FDB33E63FC30FE79EF44B Accuracy: -m0
Conclusion: CDDA 100%
Signature: 145C0084C1DE7061F0A8CE6E6EFA43E7E8285868
FILE: 03 Ghosts 'n' Stuff (Featuring Rob Swire).flac
Size: 24149471 Hash: C763B17D1154FDCDB5E6B8F289EB64BA Accuracy: -m0
Conclusion: CDDA 100%
Signature: 931DBA8A5C79F6D1B04B511AEB7EB14D121DBCF2
FILE: 02 Moar Ghosts 'n' Stuff.flac
Size: 33357730 Hash: 427FF3CE3776BB415795FDED9CBBD8B5 Accuracy: -m0
Conclusion: CDDA 99%
Signature: E34335C2D437EF4E6007875B0B354AF776FD5E4D
FILE: 01 FML.flac
Size: 48961565 Hash: 20E091CAF11E6FF52A5E339C97831FFB Accuracy: -m0
Conclusion: CDDA 99%
Signature: 019763E755DE08BEC4BD64A80695AC382761449D
FILE: 10 Strobe.flac
Size: 63787039 Hash: 861E7758DB3353431D74EEC55E50349C Accuracy: -m0
Conclusion: CDDA 100%
Signature: D23396B49B9F8ED8AAFB65C887DF9253E377CCC5
Инструменты: Foobar2000 + qaac 1.38, CoreAudioToolbox 7.9.7.9, Apple Lossless Encoder; Mp3tag
Чем воспроизвести кроме iTunes? - Лучший способ - Foobar2000, но можно воспользоваться и VLC
Download / Скачать

Хотите скачать бесплатно? Зарегистрируйтесь на сайте (ссылка на регистрацию). Pirat.ca - самый быстрый торрент трекер в рунете!

Как скачивать  ·   Что такое торрент  ·   Рейтинг и ограничения

Пост 03-Дек-2012 21:37 (спустя 5 месяцев 4 дня)

Топик был перенесен из форума Electronic в форум Архив (Electronic)

AnTonyO
 
Показать сообщения:    
Ответить на тему

Текущее время: Сегодня 13:43

Часовой пояс: GMT + 4



Вы не можете начинать темы
Вы не можете отвечать на сообщения
Вы не можете редактировать свои сообщения
Вы не можете удалять свои сообщения
Вы не можете голосовать в опросах
Вы не можете прикреплять файлы к сообщениям
Вы не можете скачивать файлы

▼ Вниз