Уважаемый Гость!
Вы можете поддержать проект и зарегистрироваться у наших партнеров - онлайн-стратегия MyLands. При регистрации в игре Вы получите код, который сможете активировать после регистрации на pirat.ca и получить 1000 дублонов.

Ваш код:
42dfaac977a7ef29e5167536f5b22936dba18477
 
     

(Dub, Synth-pop, Ambient) Michele Adamson - Fallen Angel - 2005, FLAC (tracks+.cue) , lossless

Ответить на тему
 
Автор
Сообщение

Пост 27-Янв-2012 11:29

[Q] 

Koralina

Michele Adamson - Fallen Angel Год выпуска: 2005
Страна: Israel
Жанр: Dub, Synth-pop, Ambient
Лейбл издания: Agitato Records
Тип альбома: CD, Album
Номер по каталогу: AGE1042
Продолжительность: 70:08
Источник (релизер): Koralina
Формат: FLAC
Битрейт аудио: lossless
Тип рипа: tracks+.cue
Наличие сканов в содержимом раздачи: нет
1 Mad & Michele Adamson - Gouchin Out 7:06
Producer - Ben Roberts , Professor Stretch
Written-By - Roberts , Stretchley
2 Violet Vision & Michele Adamson - Bouncing Ball 5:14
Producer - J. Dagan , S. Raviv
Written-By - Dagan , Raviv
3 Doof & Michele Adamson - Tricky 4:33
Producer - Nick Barber
Written-By - Barber
4 J.Viewz & Michele Adamson - Move In 4:34
Producer - J. Dagan
Written-By - Dagan
5 J.Viewz & Michele Adamson - Stranded 4:39
Producer - J. Dagan
Written-By - Dagan
6 Beat Hackers & Michele Adamson - Phantom Clarity 6:14
Producer - Guy Peled
Written-By - Peled
7 J.Viewz & Michele Adamson - Bass Junkie 3:26
Producer - J. Dagan
Written-By - Dagan
8 Sub6 & Michele Adamson - Seventh Son 4:26
Producer - Ohad Aharoni
Written-By - Aharoni
9 J.Viewz & Michele Adamson - Weird 3:05
Producer - J. Dagan
Written-By - Dagan
10 Unconscious Collective & Michele Adamson - Feel Free 6:28
Producer - Colin Bennun
Written-By - Bennun
Written-By, Producer, Guitar - Callaghan
11 Doof & Michele Adamson - Flutterby 4:06
Producer - Nick Barber
Written-By - Doof
12 Violet Vision & Michele Adamson - Fortean 4:31
Producer - J. Dagan , S. Raviv
Written-By - Violet Vision
13 J.Viewz & Michele Adamson - Stuck On You 5:09
Producer - J. Dagan
Written-By - J.Viewz
14 Fly Agaric & Michele Adamson - I See Myself (Gray Matter Remix) 6:32
Producer - S. Raviv
Remix - Gray Matter
Written-By - Duvdevani , Eisen , Posford
Код:
Exact Audio Copy V0.99 prebeta 5 from 4. May 2009
EAC extraction logfile from 5. December 2009, 23:39
Michele Adamson / Fallen Angel
Used drive  : HL-DT-STDVDRAM GSA-T20N   Adapter: 3  ID: 0
Read mode               : Secure
Utilize accurate stream : Yes
Defeat audio cache      : Yes
Make use of C2 pointers : No
Read offset correction                      : 667
Overread into Lead-In and Lead-Out          : No
Fill up missing offset samples with silence : Yes
Delete leading and trailing silent blocks   : No
Null samples used in CRC calculations       : No
Used interface                              : Installed external ASPI interface
Gap handling                                : Appended to previous track
Used output format              : User Defined Encoder
Selected bitrate                : 128 kBit/s
Quality                         : High
Add ID3 tag                     : No
Command line compressor         : C:\Program Files\Exact Audio Copy\Flac\flac.exe
Additional command line options : -8 -V -T "ARTIST=%a" -T "TITLE=%t" -T "ALBUM=%g" -T "DATE=%y" -T "TRACKNUMBER=%n" -T "GENRE=%m" -T "COMMENT=EAC FLAC -8" %s
TOC of the extracted CD
     Track |   Start  |  Length  | Start sector | End sector
    ---------------------------------------------------------
        1  |  0:00.00 |  7:06.23 |         0    |    31972
        2  |  7:06.23 |  5:14.66 |     31973    |    55588
        3  | 12:21.14 |  4:33.14 |     55589    |    76077
        4  | 16:54.28 |  4:34.68 |     76078    |    96695
        5  | 21:29.21 |  4:39.06 |     96696    |   117626
        6  | 26:08.27 |  6:14.64 |    117627    |   145740
        7  | 32:23.16 |  3:26.37 |    145741    |   161227
        8  | 35:49.53 |  4:26.45 |    161228    |   181222
        9  | 40:16.23 |  3:05.03 |    181223    |   195100
       10  | 43:21.26 |  6:28.62 |    195101    |   224262
       11  | 49:50.13 |  4:06.15 |    224263    |   242727
       12  | 53:56.28 |  4:31.01 |    242728    |   263053
       13  | 58:27.29 |  5:09.04 |    263054    |   286232
       14  | 63:36.33 |  6:31.74 |    286233    |   315631
Track  1
     Filename C:\upload\Michele Adamson\01. Michele Adamson – Gouchin Out.wav
     Pre-gap length  0:00:02.00
     Peak level 98.9 %
     Track quality 100.0 %
     Test CRC C35D561D
     Copy CRC C35D561D
     Track not present in AccurateRip database
     Copy OK
Track  2
     Filename C:\upload\Michele Adamson\02. Michele Adamson – Bouncing Ball.wav
     Peak level 98.9 %
     Track quality 100.0 %
     Test CRC AEA07202
     Copy CRC AEA07202
     Track not present in AccurateRip database
     Copy OK
Track  3
     Filename C:\upload\Michele Adamson\03. Michele Adamson – Tricky.wav
     Peak level 98.8 %
     Track quality 100.0 %
     Test CRC 0837A7D3
     Copy CRC 0837A7D3
     Track not present in AccurateRip database
     Copy OK
Track  4
     Filename C:\upload\Michele Adamson\04. Michele Adamson – Move In.wav
     Peak level 98.8 %
     Track quality 100.0 %
     Test CRC 5FF08CD1
     Copy CRC 5FF08CD1
     Track not present in AccurateRip database
     Copy OK
Track  5
     Filename C:\upload\Michele Adamson\05. Michele Adamson – Stranded.wav
     Peak level 98.8 %
     Track quality 100.0 %
     Test CRC CF234897
     Copy CRC CF234897
     Track not present in AccurateRip database
     Copy OK
Track  6
     Filename C:\upload\Michele Adamson\06. Michele Adamson – Phantom Clarity.wav
     Peak level 98.9 %
     Track quality 100.0 %
     Test CRC 555BC909
     Copy CRC 555BC909
     Track not present in AccurateRip database
     Copy OK
Track  7
     Filename C:\upload\Michele Adamson\07. Michele Adamson – Bass Junkie.wav
     Peak level 98.8 %
     Track quality 100.0 %
     Test CRC FDAD633D
     Copy CRC FDAD633D
     Track not present in AccurateRip database
     Copy OK
Track  8
     Filename C:\upload\Michele Adamson\08. Michele Adamson – Seventh Son.wav
     Peak level 98.8 %
     Track quality 100.0 %
     Test CRC 5EB84B85
     Copy CRC 5EB84B85
     Track not present in AccurateRip database
     Copy OK
Track  9
     Filename C:\upload\Michele Adamson\09. Michele Adamson – Weird.wav
     Peak level 98.8 %
     Track quality 100.0 %
     Test CRC DAB2E77F
     Copy CRC DAB2E77F
     Track not present in AccurateRip database
     Copy OK
Track 10
     Filename C:\upload\Michele Adamson\10. Michele Adamson – Feel Free.wav
     Peak level 98.8 %
     Track quality 99.9 %
     Test CRC 8B2EF74C
     Copy CRC 8B2EF74C
     Track not present in AccurateRip database
     Copy OK
Track 11
     Filename C:\upload\Michele Adamson\11. Michele Adamson – Flutterby.wav
     Peak level 98.8 %
     Track quality 100.0 %
     Test CRC FB73D321
     Copy CRC FB73D321
     Track not present in AccurateRip database
     Copy OK
Track 12
     Filename C:\upload\Michele Adamson\12. Michele Adamson – Fortean.wav
     Peak level 98.9 %
     Track quality 100.0 %
     Test CRC 44B44D1D
     Copy CRC 44B44D1D
     Track not present in AccurateRip database
     Copy OK
Track 13
     Filename C:\upload\Michele Adamson\13. Michele Adamson – Stuck on You.wav
     Peak level 98.8 %
     Track quality 100.0 %
     Test CRC 21196B77
     Copy CRC 21196B77
     Track not present in AccurateRip database
     Copy OK
Track 14
     Filename C:\upload\Michele Adamson\14. Michele Adamson – I See Myself.wav
     Peak level 98.9 %
     Track quality 100.0 %
     Test CRC 04F486FC
     Copy CRC 04F486FC
     Track not present in AccurateRip database
     Copy OK
None of the tracks are present in the AccurateRip database
No errors occurred
End of status report
Код:
REM GENRE Ambient
REM DATE 2005
REM DISCID C110700E
REM COMMENT "ExactAudioCopy v0.99pb5"
PERFORMER "Michele Adamson"
TITLE "Fallen Angel"
FILE "01. Michele Adamson – Gouchin Out.wav" WAVE
  TRACK 01 AUDIO
    TITLE "Gouchin Out"
    PERFORMER "Michele Adamson"
    INDEX 01 00:00:00
FILE "02. Michele Adamson – Bouncing Ball.wav" WAVE
  TRACK 02 AUDIO
    TITLE "Bouncing Ball"
    PERFORMER "Michele Adamson"
    INDEX 01 00:00:00
FILE "03. Michele Adamson – Tricky.wav" WAVE
  TRACK 03 AUDIO
    TITLE "Tricky"
    PERFORMER "Michele Adamson"
    INDEX 01 00:00:00
FILE "04. Michele Adamson – Move In.wav" WAVE
  TRACK 04 AUDIO
    TITLE "Move In"
    PERFORMER "Michele Adamson"
    INDEX 01 00:00:00
FILE "05. Michele Adamson – Stranded.wav" WAVE
  TRACK 05 AUDIO
    TITLE "Stranded"
    PERFORMER "Michele Adamson"
    INDEX 01 00:00:00
FILE "06. Michele Adamson – Phantom Clarity.wav" WAVE
  TRACK 06 AUDIO
    TITLE "Phantom Clarity"
    PERFORMER "Michele Adamson"
    INDEX 01 00:00:00
FILE "07. Michele Adamson – Bass Junkie.wav" WAVE
  TRACK 07 AUDIO
    TITLE "Bass Junkie"
    PERFORMER "Michele Adamson"
    INDEX 01 00:00:00
FILE "08. Michele Adamson – Seventh Son.wav" WAVE
  TRACK 08 AUDIO
    TITLE "Seventh Son"
    PERFORMER "Michele Adamson"
    INDEX 01 00:00:00
FILE "09. Michele Adamson – Weird.wav" WAVE
  TRACK 09 AUDIO
    TITLE "Weird"
    PERFORMER "Michele Adamson"
    INDEX 01 00:00:00
FILE "10. Michele Adamson – Feel Free.wav" WAVE
  TRACK 10 AUDIO
    TITLE "Feel Free"
    PERFORMER "Michele Adamson"
    INDEX 01 00:00:00
FILE "11. Michele Adamson – Flutterby.wav" WAVE
  TRACK 11 AUDIO
    TITLE "Flutterby"
    PERFORMER "Michele Adamson"
    INDEX 01 00:00:00
FILE "12. Michele Adamson – Fortean.wav" WAVE
  TRACK 12 AUDIO
    TITLE "Fortean"
    PERFORMER "Michele Adamson"
    INDEX 01 00:00:00
FILE "13. Michele Adamson – Stuck on You.wav" WAVE
  TRACK 13 AUDIO
    TITLE "Stuck on You"
    PERFORMER "Michele Adamson"
    INDEX 01 00:00:00
FILE "14. Michele Adamson – I See Myself.wav" WAVE
  TRACK 14 AUDIO
    TITLE "I See Myself"
    PERFORMER "Michele Adamson"
    INDEX 01 00:00:00
Download / Скачать

Хотите скачать бесплатно? Зарегистрируйтесь на сайте (ссылка на регистрацию). Pirat.ca - самый быстрый торрент трекер в рунете!

Как скачивать  ·   Что такое торрент  ·   Рейтинг и ограничения

ksg111ban

Гроза морей

Пост 31-Янв-2012 18:54 (спустя 4 дня)

[Q] 


_________________
[Профиль]  [ЛС] 

Пост 03-Дек-2012 21:38 (спустя 10 месяцев 3 дня)

Топик был перенесен из форума Electronic в форум Архив (Electronic)

AnTonyO
 
Показать сообщения:    
Ответить на тему

Текущее время: Сегодня 22:41

Часовой пояс: GMT + 4



Вы не можете начинать темы
Вы не можете отвечать на сообщения
Вы не можете редактировать свои сообщения
Вы не можете удалять свои сообщения
Вы не можете голосовать в опросах
Вы не можете прикреплять файлы к сообщениям
Вы не можете скачивать файлы

▼ Вниз