Уважаемый Гость!
Вы можете поддержать проект и зарегистрироваться у наших партнеров - онлайн-стратегия MyLands. При регистрации в игре Вы получите код, который сможете активировать после регистрации на pirat.ca и получить 1000 дублонов.

Ваш код:
6e74277781110e9b49c3c0dd24e1bed54391613e
 
     

(Trance) Armin van Buuren feat. Ray Wilson - Yet Another Day (AVTCDS-400) (CD) - 2003, FLAC (tracks+.cue), lossless

Ответить на тему
 
Автор
Сообщение

Пост 09-Ноя-2011 22:45

[Q] 

zyyx

--Armin van Buuren feat. Ray Wilson - Yet Another Day--
Год выпуска диска: 2003
Производитель диска: Hong Kong
Лейбл: Avex Asia Ltd.
Каталог: AVTCDS-400
Жанр: Trance
Аудио кодек: FLAC
Тип рипа: tracks+cue
Битрейт аудио: lossless
Продолжительность: 01:05:25- -01. Yet Another Day (Radio Edit) 3:27
02. Yet Another Day (Riva Edit) 3:44
03. Yet Another Day (Armin's Downtempo Interpretation Edit) 4:11
04. Yet Another Day (Original Mix) 10:18
05. Yet Another Day (Riva Remix) 8:37
06. Yet Another Day (Rising Star Mix) 8:40
07. Yet Another Day (Sunday 5pm Mix) 8:51
08. Yet Another Day (Hiver & Hammer's Ground Control Remix) 9:17
09. Yet Another Day (Dub) 8:17
Exact Audio Copy V0.99 prebeta 4 from 23. January 2008
EAC extraction logfile from 3. October 2009, 17:22
Armin Van Buuren feat. Ray Wilson / Yet Another Day
Used drive : SONY CD-RW CRX195E1 Adapter: 1 ID: 0
Read mode : Secure
Utilize accurate stream : Yes
Defeat audio cache : Yes
Make use of C2 pointers : No
Read offset correction : 12
Overread into Lead-In and Lead-Out : No
Fill up missing offset samples with silence : Yes
Delete leading and trailing silent blocks : No
Null samples used in CRC calculations : Yes
Used interface : Native Win32 interface for Win NT & 2000
Gap handling : Appended to previous track
Used output format : User Defined Encoder
Selected bitrate : 128 kBit/s
Quality : High
Add ID3 tag : No
Command line compressor : C:\Program Files\Exact Audio Copy\Flac\flac.exe
Additional command line options : -V -8 -T "artist=%a" -T "title=%t" -T "album=%g" -T "date=%y" -T "tracknumber=%n" -T "genre=%m" %s
TOC of the extracted CD
Track | Start | Length | Start sector | End sector
---------------------------------------------------------
1 | 0:00.00 | 3:29.02 | 0 | 15676
2 | 3:29.02 | 3:43.65 | 15677 | 32466
3 | 7:12.67 | 4:09.30 | 32467 | 51171
4 | 11:22.22 | 10:20.10 | 51172 | 97681
5 | 21:42.32 | 8:39.45 | 97682 | 136651
6 | 30:22.02 | 8:43.15 | 136652 | 175891
7 | 39:05.17 | 8:41.03 | 175892 | 214969
8 | 47:46.20 | 9:18.70 | 214970 | 256889
9 | 57:05.15 | 8:20.02 | 256890 | 294391
10 | 67:57.17 | 5:25.60 | 305792 | 330226
Track 1
Filename C:\EACrips\Armin Van Buuren feat. Ray Wilson - Yet Another Day (2003) [FLAC]\01 - Yet Another Day (Radio Edit).wav
Pre-gap length 0:00:02.00
Peak level 79.4 %
Track quality 100.0 %
Test CRC AD89CED8
Copy CRC AD89CED8
Track not present in AccurateRip database
Copy OK
Track 2
Filename C:\EACrips\Armin Van Buuren feat. Ray Wilson - Yet Another Day (2003) [FLAC]\02 - Yet Another Day (Riva Edit).wav
Pre-gap length 0:00:00.93
Peak level 100.0 %
Track quality 100.0 %
Test CRC 7D694CF0
Copy CRC 7D694CF0
Track not present in AccurateRip database
Copy OK
Track 3
Filename C:\EACrips\Armin Van Buuren feat. Ray Wilson - Yet Another Day (2003) [FLAC]\03 - Yet Another Day (Armin's Downtempo Interpretation Edit).wav
Pre-gap length 0:00:00.97
Peak level 100.0 %
Track quality 99.9 %
Test CRC A1FE694B
Copy CRC A1FE694B
Track not present in AccurateRip database
Copy OK
Track 4
Filename C:\EACrips\Armin Van Buuren feat. Ray Wilson - Yet Another Day (2003) [FLAC]\04 - Yet Another Day (Original Mix).wav
Pre-gap length 0:00:00.93
Peak level 100.0 %
Track quality 100.0 %
Test CRC 7625E76F
Copy CRC 7625E76F
Track not present in AccurateRip database
Copy OK
Track 5
Filename C:\EACrips\Armin Van Buuren feat. Ray Wilson - Yet Another Day (2003) [FLAC]\05 - Yet Another Day (Riva Remix).wav
Pre-gap length 0:00:00.82
Peak level 100.0 %
Track quality 100.0 %
Test CRC 4A7CE1ED
Copy CRC 4A7CE1ED
Track not present in AccurateRip database
Copy OK
Track 6
Filename C:\EACrips\Armin Van Buuren feat. Ray Wilson - Yet Another Day (2003) [FLAC]\06 - Yet Another Day (Rising Star Mix).wav
Pre-gap length 0:00:00.89
Peak level 100.0 %
Track quality 100.0 %
Test CRC 0EE1CE9E
Copy CRC 0EE1CE9E
Track not present in AccurateRip database
Copy OK
Track 7
Filename C:\EACrips\Armin Van Buuren feat. Ray Wilson - Yet Another Day (2003) [FLAC]\07 - Yet Another Day (Sunday 5pm Mix).wav
Pre-gap length 0:00:00.89
Peak level 100.0 %
Track quality 100.0 %
Test CRC 9899C901
Copy CRC 9899C901
Track not present in AccurateRip database
Copy OK
Track 8
Filename C:\EACrips\Armin Van Buuren feat. Ray Wilson - Yet Another Day (2003) [FLAC]\08 - Yet Another Day (Hiver & Hammer's Ground Control Remix).wav
Pre-gap length 0:00:00.86
Peak level 100.0 %
Track quality 100.0 %
Test CRC E8DFC5A2
Copy CRC E8DFC5A2
Track not present in AccurateRip database
Copy OK
Track 9
Filename C:\EACrips\Armin Van Buuren feat. Ray Wilson - Yet Another Day (2003) [FLAC]\09 - Yet Another Day (Dub).wav
Pre-gap length 0:00:00.90
Peak level 100.0 %
Track quality 100.0 %
Test CRC 90F202F7
Copy CRC 90F202F7
Track not present in AccurateRip database
Copy OK
None of the tracks are present in the AccurateRip database
No errors occurred
End of status report
REM GENRE Trance
REM DATE 2003
REM DISCID 8611330A
REM COMMENT "ExactAudioCopy v0.99pb4"
PERFORMER "Armin Van Buuren feat. Ray Wilson"
TITLE "Yet Another Day"
FILE "01 - Yet Another Day (Radio Edit).wav" WAVE
TRACK 01 AUDIO
TITLE "Yet Another Day (Radio Edit)"
PERFORMER "Armin Van Buuren feat. Ray Wilson"
INDEX 01 00:00:00
TRACK 02 AUDIO
TITLE "Yet Another Day (Riva Edit)"
PERFORMER "Armin Van Buuren feat. Ray Wilson"
INDEX 00 03:28:07
FILE "02 - Yet Another Day (Riva Edit).wav" WAVE
INDEX 01 00:00:00
TRACK 03 AUDIO
TITLE "Yet Another Day (Armin's Downtempo Interpretation Edit)"
PERFORMER "Armin Van Buuren feat. Ray Wilson"
INDEX 00 03:42:67
FILE "03 - Yet Another Day (Armin's Downtempo Interpretation Edit).wav" WAVE
INDEX 01 00:00:00
TRACK 04 AUDIO
TITLE "Yet Another Day (Original Mix)"
PERFORMER "Armin Van Buuren feat. Ray Wilson"
INDEX 00 04:08:35
FILE "04 - Yet Another Day (Original Mix).wav" WAVE
INDEX 01 00:00:00
TRACK 05 AUDIO
TITLE "Yet Another Day (Riva Remix)"
PERFORMER "Armin Van Buuren feat. Ray Wilson"
INDEX 00 10:19:23
FILE "05 - Yet Another Day (Riva Remix).wav" WAVE
INDEX 01 00:00:00
TRACK 06 AUDIO
TITLE "Yet Another Day (Rising Star Mix)"
PERFORMER "Armin Van Buuren feat. Ray Wilson"
INDEX 00 08:38:53
FILE "06 - Yet Another Day (Rising Star Mix).wav" WAVE
INDEX 01 00:00:00
TRACK 07 AUDIO
TITLE "Yet Another Day (Sunday 5pm Mix)"
PERFORMER "Armin Van Buuren feat. Ray Wilson"
INDEX 00 08:42:23
FILE "07 - Yet Another Day (Sunday 5pm Mix).wav" WAVE
INDEX 01 00:00:00
TRACK 08 AUDIO
TITLE "Yet Another Day (Hiver & Hammer's Ground Control Remix)"
PERFORMER "Armin Van Buuren feat. Ray Wilson"
INDEX 00 08:40:13
FILE "08 - Yet Another Day (Hiver & Hammer's Ground Control Remix).wav" WAVE
INDEX 01 00:00:00
TRACK 09 AUDIO
TITLE "Yet Another Day (Dub)"
PERFORMER "Armin Van Buuren feat. Ray Wilson"
INDEX 00 09:18:02
FILE "09 - Yet Another Day (Dub).wav" WAVE
INDEX 01 00:00:00
TRACK 10 MODEx/2xxx
TITLE "Yet Another Day (video)"
PERFORMER "Armin Van Buuren feat. Ray Wilson"
INDEX 00 08:20:02
Download / Скачать

Хотите скачать бесплатно? Зарегистрируйтесь на сайте (ссылка на регистрацию). Pirat.ca - самый быстрый торрент трекер в рунете!

Как скачивать  ·   Что такое торрент  ·   Рейтинг и ограничения



Последний раз редактировалось: zyyx (2011-11-10 22:42), всего редактировалось 1 раз

Пост 03-Дек-2012 21:40 (спустя 1 год)

Топик был перенесен из форума Electronic в форум Архив (Electronic)

AnTonyO
 
Показать сообщения:    
Ответить на тему

Текущее время: Сегодня 13:40

Часовой пояс: GMT + 4



Вы не можете начинать темы
Вы не можете отвечать на сообщения
Вы не можете редактировать свои сообщения
Вы не можете удалять свои сообщения
Вы не можете голосовать в опросах
Вы не можете прикреплять файлы к сообщениям
Вы не можете скачивать файлы

▼ Вниз