Уважаемый Гость!
Вы можете поддержать проект и зарегистрироваться у наших партнеров - онлайн-стратегия MyLands. При регистрации в игре Вы получите код, который сможете активировать после регистрации на pirat.ca и получить 1000 дублонов.

Ваш код:
6e74277781110e9b49c3c0dd24e1bed54391613e
 
     

(Dance) DJ Aligator Project - Payback Time - 2000, FLAC [image+.cue], lossless

Ответить на тему
 
Автор
Сообщение

Пост 13-Ноя-2011 20:09

[Q] 

Giganter

Штурман

DJ Aligator Project - Payback Time
Производство: Denmark
Жанр: Dance
Год выпуска: 2000
Формат: FLAC[image+.cue]
Битрейт аудио: lossless
Продолжительность: 01:15:21
Трэклист:
1. The Whistle Song (3:41)
2. Turn Up The Music (5:13)
3. Payback Time (5:36)
4. Water In The Ocean (4:55)
5. Welcome To Future (4:13)
6. Lollipop (3:45)
7. Bounce 2 This (4:22)
8. Temple Of India (7:22)
9. Doggy Style (4:09)
10.Calling Out Your Name (6:17)
BONUS TRACKS:
11. The Whistle Song (Club Version) (5:36)
12. The Whistle Song (Andy Trent Club Mix) (8:19)
13. The Whistle Song (Krystal vs. Musical Suspects Remix) (8:22)
14. Lollipop (Club Version) (3:24)
Доп. информация: : В раздаче присутствуют сканы буклета
EAC extraction logfile from 25. January 2009, 22:45 for CD
Dj Aligator Project / Payback Time
Used drive : ASUS DRW-1814BLT Adapter: 0 ID: 1
Read mode : Secure with NO C2, accurate stream, disable cache
Read offset correction : 6
Overread into Lead-In and Lead-Out : No
Used output format : D:\Program Files (x86)\Exact Audio Copy\Flac\flac.exe (User Defined Encoder)
128 kBit/s
Additional command line options : -8 -V -T "ARTIST=%a" -T "TITLE=%t" -T "ALBUM=%g" -T "DATE=%y" -T "TRACKNUMBER=%n" -T "GENRE=%m" -T "COMMENT=EAC FLAC -8" %s
Other options :
Fill up missing offset samples with silence : Yes
Delete leading and trailing silent blocks : No
Native Win32 interface for Win NT & 2000
Range status and errors
Selected range
Filename F:\EAC\Dj Aligator Project - Payback Time.wav
Peak level 100.0 %
Range quality 100.0 %
CRC F5351756
Copy OK
No errors occured
End of status report
REM GENRE Club
REM DATE 2000
REM DISCID C111A90E
REM COMMENT "ExactAudioCopy v0.95b3"
PERFORMER "Dj Aligator Project"
TITLE "Payback Time"
FILE "Dj Aligator Project - Payback Time.flac" WAVE
TRACK 01 AUDIO
TITLE "The Whistle Song"
PERFORMER "Dj Aligator Project"
INDEX 01 00:00:00
TRACK 02 AUDIO
TITLE "Turn Up The Music"
PERFORMER "Dj Aligator Project"
INDEX 01 03:41:45
TRACK 03 AUDIO
TITLE "Payback Time"
PERFORMER "Dj Aligator Project"
INDEX 01 08:55:23
TRACK 04 AUDIO
TITLE "Water In The Ocean"
PERFORMER "Dj Aligator Project"
INDEX 01 14:31:55
TRACK 05 AUDIO
TITLE "Welcome To Future"
PERFORMER "Dj Aligator Project"
INDEX 01 19:27:53
TRACK 06 AUDIO
TITLE "Lollipop"
PERFORMER "Dj Aligator Project"
INDEX 01 23:40:72
TRACK 07 AUDIO
TITLE "Bounce 2 This"
PERFORMER "Dj Aligator Project"
INDEX 01 27:26:44
TRACK 08 AUDIO
TITLE "Temple Of India"
PERFORMER "Dj Aligator Project"
INDEX 01 31:49:34
TRACK 09 AUDIO
TITLE "Doggy Style"
PERFORMER "Dj Aligator Project"
INDEX 01 39:12:23
TRACK 10 AUDIO
TITLE "Calling Out Your Name"
PERFORMER "Dj Aligator Project"
INDEX 01 43:21:38
TRACK 11 AUDIO
TITLE "The Whistle Song (Club Version)"
PERFORMER "Dj Aligator Project"
INDEX 01 49:39:19
TRACK 12 AUDIO
TITLE "The Whistle Song (Andy Trent Club Mix)"
PERFORMER "Dj Aligator Project"
INDEX 01 55:15:43
TRACK 13 AUDIO
TITLE "The Whistle Song (Krystal vs. Musical Suspects Remix)"
PERFORMER "Dj Aligator Project"
INDEX 01 63:34:70
TRACK 14 AUDIO
TITLE "Lollipop (Club Version)"
PERFORMER "Dj Aligator Project"
INDEX 01 71:57:14
Download / Скачать

Хотите скачать бесплатно? Зарегистрируйтесь на сайте (ссылка на регистрацию). Pirat.ca - самый быстрый торрент трекер в рунете!

Как скачивать  ·   Что такое торрент  ·   Рейтинг и ограничения

Пост 20-Апр-2012 21:39 (спустя 5 месяцев 7 дней)

Топик был перенесен из форума Electronic в форум Архив (Electronic)

witto
 
Показать сообщения:    
Ответить на тему

Текущее время: Сегодня 13:37

Часовой пояс: GMT + 4



Вы не можете начинать темы
Вы не можете отвечать на сообщения
Вы не можете редактировать свои сообщения
Вы не можете удалять свои сообщения
Вы не можете голосовать в опросах
Вы не можете прикреплять файлы к сообщениям
Вы не можете скачивать файлы

▼ Вниз