Уважаемый Гость!
Вы можете поддержать проект и зарегистрироваться у наших партнеров - онлайн-стратегия MyLands. При регистрации в игре Вы получите код, который сможете активировать после регистрации на pirat.ca и получить 1000 дублонов.

Ваш код:
6e74277781110e9b49c3c0dd24e1bed54391613e
 
     

(Abstract, Ambient, Techno, Tribal, Minimal) Apparat - DJ-Kicks - 2010, FLAC (tracks+.cue) - 2010, FLAC, lossless

Ответить на тему
 
Автор
Сообщение

Пост 26-Ноя-2011 21:28

[Q] 

Глеб

Шкипер

Apparat - DJ-Kicks
Производство: Studio !K7
Жанр: Abstract, Ambient, Techno, Tribal, Minimal
Год выпуска: 2010
Формат: FLAC (tracks+.cue)
Битрейт аудио: lossless
Продолжительность: 1:08:06
Трэклист:
01. Apparat - Circles (03:04)
02. 69 - Rushed (02:41)
03. Telefon Tel Aviv - Lengthening Shadows (03:36)
04. Apparat - Interlude (01:24)
05. Luke Abbot - More Room (01:09)
06. Oval - Legendary (01:32)
07. Patrice Bäumel - Sub (01:02)
08. Martyn - Miniluv (02:18)
09. Ripperton - Echocity (02:26)
10. Cosmin TRG - Tower Block (01:28)
11. Scorn - Falling (Autechre "FR 13" Remix) (02:12)
12. Born Ruffians - I Need A Life (Four Tet Remix) (04:19)
13. Pantha Du Prince - Welt Am Draht (04:02)
14. Phon.o - Intervall (02:11)
15. Burial + Four Tet - Moth (04:56)
16. Vincent Markowski - The Madness of Moths (03:24)
17. Ramadanman - Tempest (04:29)
18. Thom Yorke - Harrowdown Hill (03:48)
19. Spherix - Lesser People (01:15)
20. Oval - TV Power (01:00)
21. Joy Orbison - The Shrew Would Have Cushioned The Blow (04:50)
22. Apparat - Sayulita (DJ-Kicks) (03:58)
23. T++ - Worn Down (01:55)
24. Tim Hecker - Borderlands (05:07)
Доп. информация:
Exact Audio Copy V0.99 prebeta 5 from 4. May 2009
EAC extraction logfile from 22. October 2010, 11:28
Various / Apparat - DJ-KiCKS
Used drive : _NEC DVD_RW ND-3550A Adapter: 1 ID: 0
Read mode : Secure
Utilize accurate stream : Yes
Defeat audio cache : Yes
Make use of C2 pointers : No
Read offset correction : 48
Overread into Lead-In and Lead-Out : No
Fill up missing offset samples with silence : Yes
Delete leading and trailing silent blocks : No
Null samples used in CRC calculations : Yes
Used interface : Native Win32 interface for Win NT & 2000
Gap handling : Appended to previous track
Used output format : Internal WAV Routines
Sample format : 44.100 Hz; 16 Bit; Stereo
TOC of the extracted CD
Track | Start | Length | Start sector | End sector
---------------------------------------------------------
1 | 0:00.00 | 3:04.23 | 0 | 13822
2 | 3:04.23 | 2:40.61 | 13823 | 25883
3 | 5:45.09 | 3:35.40 | 25884 | 42048
4 | 9:20.49 | 1:24.37 | 42049 | 48385
5 | 10:45.11 | 1:09.08 | 48386 | 53568
6 | 11:54.19 | 1:31.71 | 53569 | 60464
7 | 13:26.15 | 1:01.50 | 60465 | 65089
8 | 14:27.65 | 2:18.22 | 65090 | 75461
9 | 16:46.12 | 2:25.69 | 75462 | 86405
10 | 19:12.06 | 1:28.25 | 86406 | 93030
11 | 20:40.31 | 2:12.36 | 93031 | 102966
12 | 22:52.67 | 4:18.74 | 102967 | 122390
13 | 27:11.66 | 4:02.13 | 122391 | 140553
14 | 31:14.04 | 2:10.42 | 140554 | 150345
15 | 33:24.46 | 4:55.53 | 150346 | 172523
16 | 38:20.24 | 3:23.39 | 172524 | 187787
17 | 41:43.63 | 4:29.35 | 187788 | 207997
18 | 46:13.23 | 3:47.70 | 207998 | 225092
19 | 50:01.18 | 1:15.01 | 225093 | 230718
20 | 51:16.19 | 1:00.02 | 230719 | 235220
21 | 52:16.21 | 4:49.56 | 235221 | 256951
22 | 57:06.02 | 3:58.13 | 256952 | 274814
23 | 61:04.15 | 1:55.27 | 274815 | 283466
24 | 62:59.42 | 5:06.41 | 283467 | 306457
Track 1
Filename C:\temp\01 Apparat - Circles.wav
Pre-gap length 0:00:02.00
Peak level 97.3 %
Track quality 99.9 %
Test CRC 0752C290
Copy CRC 0752C290
Track not present in AccurateRip database
Copy OK
Track 2
Filename C:\temp\02 69 - Rushed.wav
Peak level 97.6 %
Track quality 100.0 %
Test CRC 947D84AF
Copy CRC 947D84AF
Track not present in AccurateRip database
Copy OK
Track 3
Filename C:\temp\03 Telefon Tel Aviv - Lengthening Shadows.wav
Peak level 97.3 %
Track quality 99.9 %
Test CRC 3F0E7428
Copy CRC 3F0E7428
Track not present in AccurateRip database
Copy OK
Track 4
Filename C:\temp\04 Apparat - Interlude.wav
Peak level 97.3 %
Track quality 100.0 %
Test CRC 50F1504A
Copy CRC 50F1504A
Track not present in AccurateRip database
Copy OK
Track 5
Filename C:\temp\05 Luke Abbot - More Room.wav
Peak level 98.1 %
Track quality 100.0 %
Test CRC 898D9928
Copy CRC 898D9928
Track not present in AccurateRip database
Copy OK
Track 6
Filename C:\temp\06 Oval - Legendary.wav
Peak level 97.3 %
Track quality 99.8 %
Test CRC F045510C
Copy CRC F045510C
Track not present in AccurateRip database
Copy OK
Track 7
Filename C:\temp\07 Patrice Baumel - Sub.wav
Peak level 97.3 %
Track quality 100.0 %
Test CRC AC39770B
Copy CRC AC39770B
Track not present in AccurateRip database
Copy OK
Track 8
Filename C:\temp\08 Martyn - Miniluv.wav
Peak level 98.4 %
Track quality 100.0 %
Test CRC A49CEC4F
Copy CRC A49CEC4F
Track not present in AccurateRip database
Copy OK
Track 9
Filename C:\temp\09 Ripperton - Echocity.wav
Peak level 98.0 %
Track quality 100.0 %
Test CRC 69E6C333
Copy CRC 69E6C333
Track not present in AccurateRip database
Copy OK
Track 10
Filename C:\temp\10 Cosmin TRG - Tower Block.wav
Peak level 98.3 %
Track quality 99.8 %
Test CRC F55B8971
Copy CRC F55B8971
Track not present in AccurateRip database
Copy OK
Track 11
Filename C:\temp\11 Scorn - Falling (Autechre 'FR 13' Remix).wav
Peak level 97.3 %
Track quality 99.9 %
Test CRC 88246331
Copy CRC 88246331
Track not present in AccurateRip database
Copy OK
Track 12
Filename C:\temp\12 Born Ruffians - I Need A Life (Four Tet Remix).wav
Peak level 98.3 %
Track quality 99.9 %
Test CRC 1B57A9E2
Copy CRC 1B57A9E2
Track not present in AccurateRip database
Copy OK
Track 13
Filename C:\temp\13 Pantha Du Prince - Welt Am Draht.wav
Peak level 97.5 %
Track quality 100.0 %
Test CRC 1BAF85BE
Copy CRC 1BAF85BE
Track not present in AccurateRip database
Copy OK
Track 14
Filename C:\temp\14 Phon.O - Intervall.wav
Peak level 97.3 %
Track quality 100.0 %
Test CRC 16099E1D
Copy CRC 16099E1D
Track not present in AccurateRip database
Copy OK
Track 15
Filename C:\temp\15 Burial + Four Tet - Moth.wav
Peak level 97.5 %
Track quality 100.0 %
Test CRC A6F1DFD3
Copy CRC A6F1DFD3
Track not present in AccurateRip database
Copy OK
Track 16
Filename C:\temp\16 Vincent Markowski - The Madness of Moths.wav
Peak level 97.6 %
Track quality 99.9 %
Test CRC C04C07AF
Copy CRC C04C07AF
Track not present in AccurateRip database
Copy OK
Track 17
Filename C:\temp\17 Ramadanman - Tempest.wav
Peak level 98.6 %
Track quality 100.0 %
Test CRC CB605AC7
Copy CRC CB605AC7
Track not present in AccurateRip database
Copy OK
Track 18
Filename C:\temp\18 Thom Yorke - Harrowdown Hill.wav
Peak level 97.6 %
Track quality 100.0 %
Test CRC 786F0482
Copy CRC 786F0482
Track not present in AccurateRip database
Copy OK
Track 19
Filename C:\temp\19 Spherix - Lesser People.wav
Peak level 97.7 %
Track quality 100.0 %
Test CRC FBFB5838
Copy CRC FBFB5838
Track not present in AccurateRip database
Copy OK
Track 20
Filename C:\temp\20 Oval - TV Power.wav
Peak level 97.3 %
Track quality 100.0 %
Test CRC 498950E4
Copy CRC 498950E4
Track not present in AccurateRip database
Copy OK
Track 21
Filename C:\temp\21 Joy Orbison - The Shrew Would Have Cushioned the Blow.wav
Peak level 98.9 %
Track quality 100.0 %
Test CRC 19184842
Copy CRC 19184842
Track not present in AccurateRip database
Copy OK
Track 22
Filename C:\temp\22 Apparat - Sayulita (DJ-KiCKS).wav
Peak level 98.8 %
Track quality 100.0 %
Test CRC 4C4A176D
Copy CRC 4C4A176D
Track not present in AccurateRip database
Copy OK
Track 23
Filename C:\temp\23 T++ - Worn Down.wav
Peak level 97.6 %
Track quality 100.0 %
Test CRC 455A745F
Copy CRC 455A745F
Track not present in AccurateRip database
Copy OK
Track 24
Filename C:\temp\24 Tim Hecker - Borderlands.wav
Peak level 97.5 %
Track quality 100.0 %
Test CRC 7DF9297C
Copy CRC 7DF9297C
Track not present in AccurateRip database
Copy OK
None of the tracks are present in the AccurateRip database
No errors occurred
Содержание индексной карты (.CUE) REM GENRE Electronic
REM DATE 2010
REM DISCID 520FF618
REM COMMENT "ExactAudioCopy v0.99pb5"
FILE "01 Apparat - Circles.wav" WAVE
TRACK 01 AUDIO
INDEX 01 00:00:00
FILE "02 69 - Rushed.wav" WAVE
TRACK 02 AUDIO
INDEX 01 00:00:00
FILE "03 Telefon Tel Aviv - Lengthening Shadows.wav" WAVE
TRACK 03 AUDIO
INDEX 01 00:00:00
FILE "04 Apparat - Interlude.wav" WAVE
TRACK 04 AUDIO
INDEX 01 00:00:00
FILE "05 Luke Abbot - More Room.wav" WAVE
TRACK 05 AUDIO
INDEX 01 00:00:00
FILE "06 Oval - Legendary.wav" WAVE
TRACK 06 AUDIO
INDEX 01 00:00:00
FILE "07 Patrice Baumel - Sub.wav" WAVE
TRACK 07 AUDIO
INDEX 01 00:00:00
FILE "08 Martyn - Miniluv.wav" WAVE
TRACK 08 AUDIO
INDEX 01 00:00:00
FILE "09 Ripperton - Echocity.wav" WAVE
TRACK 09 AUDIO
INDEX 01 00:00:00
FILE "10 Cosmin TRG - Tower Block.wav" WAVE
TRACK 10 AUDIO
INDEX 01 00:00:00
FILE "11 Scorn - Falling (Autechre 'FR 13' Remix).wav" WAVE
TRACK 11 AUDIO
INDEX 01 00:00:00
FILE "12 Born Ruffians - I Need A Life (Four Tet Remix).wav" WAVE
TRACK 12 AUDIO
INDEX 01 00:00:00
FILE "13 Pantha Du Prince - Welt Am Draht.wav" WAVE
TRACK 13 AUDIO
INDEX 01 00:00:00
FILE "14 Phon.O - Intervall.wav" WAVE
TRACK 14 AUDIO
INDEX 01 00:00:00
FILE "15 Burial + Four Tet - Moth.wav" WAVE
TRACK 15 AUDIO
INDEX 01 00:00:00
FILE "16 Vincent Markowski - The Madness of Moths.wav" WAVE
TRACK 16 AUDIO
INDEX 01 00:00:00
FILE "17 Ramadanman - Tempest.wav" WAVE
TRACK 17 AUDIO
INDEX 01 00:00:00
FILE "18 Thom Yorke - Harrowdown Hill.wav" WAVE
TRACK 18 AUDIO
INDEX 01 00:00:00
FILE "19 Spherix - Lesser People.wav" WAVE
TRACK 19 AUDIO
INDEX 01 00:00:00
FILE "20 Oval - TV Power.wav" WAVE
TRACK 20 AUDIO
INDEX 01 00:00:00
FILE "21 Joy Orbison - The Shrew Would Have Cushioned the Blow.wav" WAVE
TRACK 21 AUDIO
INDEX 01 00:00:00
FILE "22 Apparat - Sayulita (DJ-KiCKS).wav" WAVE
TRACK 22 AUDIO
INDEX 01 00:00:00
FILE "23 T++ - Worn Down.wav" WAVE
TRACK 23 AUDIO
INDEX 01 00:00:00
FILE "24 Tim Hecker - Borderlands.wav" WAVE
TRACK 24 AUDIO
INDEX 01 00:00:00 Лог проверки качества AUDIOCHECKER v2.0 beta (build 457) - by Dester - [email protected]
~~~~~~~~~~~~~~~~~~~~~~~~~~~~~~~~~~
-=== DO NOT EDIT THIS FILE! ===-
Path: ...\Apparat - DJ-Kicks (2010)
01 -=- 01 Apparat - Circles.flac -=- CDDA (100%)
02 -=- 02 69 - Rushed.flac -=- CDDA (100%)
03 -=- 03 Telefon Tel Aviv - Lengthening Shadows.flac -=- CDDA (100%)
04 -=- 04 Apparat - Interlude.flac -=- CDDA (100%)
05 -=- 05 Luke Abbot - More Room.flac -=- CDDA (100%)
06 -=- 06 Oval - Legendary.flac -=- CDDA (100%)
07 -=- 07 Patrice Baumel - Sub.flac -=- CDDA (100%)
08 -=- 08 Martyn - Miniluv.flac -=- CDDA (100%)
09 -=- 09 Ripperton - Echocity.flac -=- CDDA (100%)
10 -=- 10 Cosmin TRG - Tower Block.flac -=- CDDA (100%)
11 -=- 11 Scorn - Falling (Autechre 'FR 13' Remix).flac -=- CDDA (94%)
12 -=- 12 Born Ruffians - I Need A Life (Four Tet Remix).flac -=- CDDA (100%)
13 -=- 13 Pantha Du Prince - Welt Am Draht.flac -=- CDDA (100%)
14 -=- 14 Phon.O - Intervall.flac -=- CDDA (100%)
15 -=- 15 Burial + Four Tet - Moth.flac -=- CDDA (99%)
16 -=- 16 Vincent Markowski - The Madness of Moths.flac -=- CDDA (100%)
17 -=- 17 Ramadanman - Tempest.flac -=- CDDA (99%)
18 -=- 18 Thom Yorke - Harrowdown Hill.flac -=- CDDA (100%)
19 -=- 19 Spherix - Lesser People.flac -=- CDDA (100%)
20 -=- 20 Oval - TV Power.flac -=- CDDA (100%)
21 -=- 21 Joy Orbison - The Shrew Would Have Cushioned the Blow.flac -=- CDDA (100%)
22 -=- 22 Apparat - Sayulita (DJ-KiCKS).flac -=- CDDA (99%)
23 -=- 23 T++ - Worn Down.flac -=- CDDA (100%)
24 -=- 24 Tim Hecker - Borderlands.flac -=- CDDA (100%)
Summary 99,63% CDDA
204784196
Download / Скачать

Хотите скачать бесплатно? Зарегистрируйтесь на сайте (ссылка на регистрацию). Pirat.ca - самый быстрый торрент трекер в рунете!

Как скачивать  ·   Что такое торрент  ·   Рейтинг и ограничения



Последний раз редактировалось: Глеб (2011-12-03 11:02), всего редактировалось 1 раз

Пост 17-Май-2012 20:34 (спустя 5 месяцев 20 дней)

Топик был перенесен из форума Electronic в форум Архив (Electronic)

witto
 
Показать сообщения:    
Ответить на тему

Текущее время: Сегодня 13:38

Часовой пояс: GMT + 4



Вы не можете начинать темы
Вы не можете отвечать на сообщения
Вы не можете редактировать свои сообщения
Вы не можете удалять свои сообщения
Вы не можете голосовать в опросах
Вы не можете прикреплять файлы к сообщениям
Вы не можете скачивать файлы

▼ Вниз