Уважаемый Гость!
Вы можете поддержать проект и зарегистрироваться у наших партнеров - онлайн-стратегия MyLands. При регистрации в игре Вы получите код, который сможете активировать после регистрации на pirat.ca и получить 1000 дублонов.

Ваш код:
42dfaac977a7ef29e5167536f5b22936dba18477
 
     

(Reggae) Stephen Marley - Mind Control - 2007, FLAC (tracks+.cue) , lossless

Ответить на тему
 
Автор
Сообщение

Пост 29-Май-2012 17:48

[Q] 

interpanik

Корсар

Stephen Marley - Mind Control- Год выпуска: 2007
Страна: USA
Жанр: Reggae
Лейбл издания: Tuff Gong / Umgd
Тип альбома: tracks+.cue
Номер по каталогу: B0008354-02
Продолжительность: 0:43:28
Формат: FLAC
Битрейт аудио: lossless
Тип рипа: tracks+.cue
Наличие сканов в содержимом раздачи: Нет
Трэклист:
01. Mind Control (4:21)
02. Hey Baby (feat. Mos Def) (4:55)
03. Officer Jimmy (Interlude) (0:15)
04. Iron Bars (feat. Julian Marley, Mr. Cheeks & Spragga Benz) (4:15)
05. The Traffic Jam (feat. Damian Marley) (3:41)
06. You're Gonna Leave (3:44)
07. Chase Dem (4:15)
08. Lonely Avenue (3:09)
09. Let Her Dance (feat. Maya Azucena & Illestr8) (4:18)
10. Fed Up (4:21)
11. Inna Di Red (feat. Ben Harper) (6:22)
Рип оригинального импортного диска из США, приобретенного в Интернет-магазине VP Reggae. Диск содержит дополнительные материалы, которые включены в состав раздачи.
Exact Audio Copy V0.99 prebeta 4 from 23. January 2008
EAC extraction logfile from 27. April 2012, 2:08
Stephen Marley / Mind Control
Used drive : ASUS DRW-22B2ST Adapter: 1 ID: 0
Read mode : Secure
Utilize accurate stream : Yes
Defeat audio cache : Yes
Make use of C2 pointers : No
Read offset correction : 6
Overread into Lead-In and Lead-Out : No
Fill up missing offset samples with silence : Yes
Delete leading and trailing silent blocks : No
Null samples used in CRC calculations : Yes
Used interface : Native Win32 interface for Win NT & 2000
Gap handling : Appended to previous track
Used output format : User Defined Encoder
Selected bitrate : 128 kBit/s
Quality : High
Add ID3 tag : No
Command line compressor : C:\Program Files (x86)\Exact Audio Copy\Flac\flac.exe
Additional command line options : -8 -V -T "ARTIST=%a" -T "TITLE=%t" -T "ALBUM=%g" -T "DATE=%y" -T "TRACKNUMBER=%n" -T "GENRE=%m" -T "COMMENT=EAC FLAC -8" %s
TOC of the extracted CD
Track | Start | Length | Start sector | End sector
---------------------------------------------------------
1 | 0:00.00 | 4:21.06 | 0 | 19580
2 | 4:21.06 | 4:54.59 | 19581 | 41689
3 | 9:15.65 | 0:14.41 | 41690 | 42780
4 | 9:30.31 | 4:15.03 | 42781 | 61908
5 | 13:45.34 | 3:40.46 | 61909 | 78454
6 | 17:26.05 | 3:43.58 | 78455 | 95237
7 | 21:09.63 | 4:15.05 | 95238 | 114367
8 | 25:24.68 | 3:08.74 | 114368 | 128541
9 | 28:33.67 | 4:17.54 | 128542 | 147870
10 | 32:51.46 | 4:20.52 | 147871 | 167422
11 | 37:12.23 | 6:21.40 | 167423 | 196037
12 | 46:05.63 | 15:00.03 | 207438 | 274940
Track 1
Filename C:\01. Stephen Marley – Mind Control.wav
Pre-gap length 0:00:02.00
Peak level 98.8 %
Track quality 100.0 %
Test CRC 0CB8FC69
Copy CRC 0CB8FC69
Accurately ripped (confidence 26) [D4DD7388]
Copy OK
Track 2
Filename C:\02. Stephen Marley – Hey Baby (feat. Mos Def).wav
Peak level 98.8 %
Track quality 100.0 %
Test CRC 9313B29A
Copy CRC 9313B29A
Accurately ripped (confidence 26) [58D0E1D9]
Copy OK
Track 3
Filename C:\03. Stephen Marley – Officer Jimmy (Interlude).wav
Peak level 98.8 %
Track quality 100.0 %
Test CRC 94231C1D
Copy CRC 94231C1D
Accurately ripped (confidence 26) [2B566FA5]
Copy OK
Track 4
Filename C:\04. Stephen Marley – Iron Bars (feat. Julian Marley, Mr. Cheeks & Spragga Benz).wav
Peak level 98.8 %
Track quality 99.9 %
Test CRC E8FE2137
Copy CRC E8FE2137
Accurately ripped (confidence 26) [019859AD]
Copy OK
Track 5
Filename C:\05. Stephen Marley – The Traffic Jam (feat. Damian Marley).wav
Peak level 98.8 %
Track quality 100.0 %
Test CRC 9CEB625A
Copy CRC 9CEB625A
Accurately ripped (confidence 26) [A34BE9CC]
Copy OK
Track 6
Filename C:\06. Stephen Marley – You're Gonna Leave.wav
Peak level 97.7 %
Track quality 99.9 %
Test CRC 87436141
Copy CRC 87436141
Accurately ripped (confidence 26) [C2ECEC99]
Copy OK
Track 7
Filename C:\07. Stephen Marley – Chase Dem.wav
Peak level 98.8 %
Track quality 100.0 %
Test CRC D0D5E8B1
Copy CRC D0D5E8B1
Accurately ripped (confidence 26) [11283304]
Copy OK
Track 8
Filename C:\08. Stephen Marley – Lonely Avenue.wav
Peak level 98.8 %
Track quality 100.0 %
Test CRC BDCC468F
Copy CRC BDCC468F
Accurately ripped (confidence 26) [BE8A3F37]
Copy OK
Track 9
Filename C:\09. Stephen Marley – Let Her Dance (feat. Maya Azucena & Illestr8).wav
Peak level 98.8 %
Track quality 100.0 %
Test CRC 8F7CB159
Copy CRC 8F7CB159
Accurately ripped (confidence 26) [ED7887C3]
Copy OK
Track 10
Filename C:\10. Stephen Marley – Fed Up.wav
Peak level 98.8 %
Track quality 100.0 %
Test CRC 5AE936B0
Copy CRC 5AE936B0
Accurately ripped (confidence 26) [1863DC2F]
Copy OK
Track 11
Filename C:\11. Stephen Marley – Inna Di Red (feat. Ben Harper).wav
Peak level 98.8 %
Track quality 99.9 %
Test CRC 440BFBD6
Copy CRC 440BFBD6
Accurately ripped (confidence 26) [8159C686]
Copy OK
All tracks accurately ripped
No errors occurred
End of status report
REM GENRE Reggae
REM DATE 2007
REM DISCID A60E510C
REM COMMENT "ExactAudioCopy v0.99pb4"
PERFORMER "Stephen Marley"
TITLE "Mind Control"
FILE "01. Stephen Marley – Mind Control.wav" WAVE
TRACK 01 AUDIO
TITLE "Mind Control"
PERFORMER "Stephen Marley"
INDEX 01 00:00:00
FILE "02. Stephen Marley – Hey Baby (feat. Mos Def).wav" WAVE
TRACK 02 AUDIO
TITLE "Hey Baby (feat. Mos Def)"
PERFORMER "Stephen Marley"
INDEX 01 00:00:00
FILE "03. Stephen Marley – Officer Jimmy (Interlude).wav" WAVE
TRACK 03 AUDIO
TITLE "Officer Jimmy (Interlude)"
PERFORMER "Stephen Marley"
INDEX 01 00:00:00
FILE "04. Stephen Marley – Iron Bars (feat. Julian Marley, Mr. Cheeks & Spragga Benz).wav" WAVE
TRACK 04 AUDIO
TITLE "Iron Bars (feat. Julian Marley, Mr. Cheeks & Spragga Benz)"
PERFORMER "Stephen Marley"
INDEX 01 00:00:00
FILE "05. Stephen Marley – The Traffic Jam (feat. Damian Marley).wav" WAVE
TRACK 05 AUDIO
TITLE "The Traffic Jam (feat. Damian Marley)"
PERFORMER "Stephen Marley"
INDEX 01 00:00:00
FILE "06. Stephen Marley – You're Gonna Leave.wav" WAVE
TRACK 06 AUDIO
TITLE "You're Gonna Leave"
PERFORMER "Stephen Marley"
INDEX 01 00:00:00
FILE "07. Stephen Marley – Chase Dem.wav" WAVE
TRACK 07 AUDIO
TITLE "Chase Dem"
PERFORMER "Stephen Marley"
INDEX 01 00:00:00
FILE "08. Stephen Marley – Lonely Avenue.wav" WAVE
TRACK 08 AUDIO
TITLE "Lonely Avenue"
PERFORMER "Stephen Marley"
INDEX 01 00:00:00
FILE "09. Stephen Marley – Let Her Dance (feat. Maya Azucena & Illestr8).wav" WAVE
TRACK 09 AUDIO
TITLE "Let Her Dance (feat. Maya Azucena & Illestr8)"
PERFORMER "Stephen Marley"
INDEX 01 00:00:00
FILE "10. Stephen Marley – Fed Up.wav" WAVE
TRACK 10 AUDIO
TITLE "Fed Up"
PERFORMER "Stephen Marley"
INDEX 01 00:00:00
FILE "11. Stephen Marley – Inna Di Red (feat. Ben Harper).wav" WAVE
TRACK 11 AUDIO
TITLE "Inna Di Red (feat. Ben Harper)"
PERFORMER "Stephen Marley"
INDEX 01 00:00:00
TRACK 12 MODEx/2xxx
TITLE "The Traffic Jam (feat. Damian Marley)"
PERFORMER "Stephen Marley"
INDEX 00 06:21:40
Item: "C:\01. Stephen Marley – Mind Control.flac"
MD5: 5DC82D2FC132F584D28DD68D7097B618
CRC32: 0CB8FC69
No problems found.
Item: "C:\02. Stephen Marley – Hey Baby (feat. Mos Def).flac"
MD5: AB293269013466DDC1771A3E99C8C2F0
CRC32: 9313B29A
No problems found.
Item: "C:\03. Stephen Marley – Officer Jimmy (Interlude).flac"
MD5: F4D2EB16397873CD2CA1151E0D4F29D1
CRC32: 94231C1D
No problems found.
Item: "C:\04. Stephen Marley – Iron Bars (feat. Julian Marley, Mr. Cheeks & Spragga Benz).flac"
MD5: B49B58E151539541B42CE348823DC6CD
CRC32: E8FE2137
No problems found.
Item: "C:\05. Stephen Marley – The Traffic Jam (feat. Damian Marley).flac"
MD5: DA57764EC8F20E1067060D1D4C4B932F
CRC32: 9CEB625A
No problems found.
Item: "C:\06. Stephen Marley – You're Gonna Leave.flac"
MD5: B3CF729AA2D0AB53A75F5C2BA4FA34ED
CRC32: 87436141
No problems found.
Item: "C:\07. Stephen Marley – Chase Dem.flac"
MD5: 03BFF190C2B851614799BCB57292995D
CRC32: D0D5E8B1
No problems found.
Item: "C:\08. Stephen Marley – Lonely Avenue.flac"
MD5: 9D66E9B3F8B0284CFC919518564765C0
CRC32: BDCC468F
No problems found.
Item: "C:\09. Stephen Marley – Let Her Dance (feat. Maya Azucena & Illestr8).flac"
MD5: BAC1FB53AF042770D89CFC6F07F190E8
CRC32: 8F7CB159
No problems found.
Item: "C:\10. Stephen Marley – Fed Up.flac"
MD5: 6B4D95D54BC2349C0EEEC9DCC687711F
CRC32: 5AE936B0
No problems found.
Item: "C:\11. Stephen Marley – Inna Di Red (feat. Ben Harper).flac"
MD5: A2FFFF23A31EA135F531A6BC76AAC7FE
CRC32: 440BFBD6
No problems found.
All items decoded successfully.
Download / Скачать

Хотите скачать бесплатно? Зарегистрируйтесь на сайте (ссылка на регистрацию). Pirat.ca - самый быстрый торрент трекер в рунете!

Как скачивать  ·   Что такое торрент  ·   Рейтинг и ограничения

Igoryok96

Шкипер

353

Пост 08-Июн-2012 15:14 (спустя 9 дней)

[Q] 

Братиш, а чё за плагин у фубара такой? Не подскажешь? И какую функцию он выполняет.

_________________
Сошел на берег.
[Профиль]  [ЛС] 

Пост 14-Авг-2012 23:28 (спустя 2 месяца 6 дней)

Топик был перенесен из форума Music from other genres в форум Архив (Electronic)

witto
 
Показать сообщения:    
Ответить на тему

Текущее время: Сегодня 22:32

Часовой пояс: GMT + 4



Вы не можете начинать темы
Вы не можете отвечать на сообщения
Вы не можете редактировать свои сообщения
Вы не можете удалять свои сообщения
Вы не можете голосовать в опросах
Вы не можете прикреплять файлы к сообщениям
Вы не можете скачивать файлы

▼ Вниз