(Avantgarde Thrash/Techno-Thrash Metal) Voivod - Target Earth - 2013 [MP3, tracks, 320 kbps]

Ответить на тему
 
Автор
Сообщение

Пост 21-Янв-2013 13:23

[Q] 

persia07

Морской Волк

-Voivod / Target Earth- - Год издания: 2013
Страна: Canada
Жанр: Avantgarde Thrash/Techno-Thrash Metal
Продолжительность: 00:56:42
Формат: MP3
Битрейт аудио: 320 kbps
Тип рипа: tracks
Наличие сканов в содержимом раздачи: да-
-
-
-
- 01. Target Earth [06:05]
02. Kluskap O'Kom [04:24]
03. Empathy for the Enemy [05:46]
04. Mechanical Mind [07:36]
05. Warchaic [07:01]
06. Resistance [06:46]
07. Kaleidos [06:28]
08. Corps Etranger [04:36]
09. Artefact [06:27]
10. Defiance [01:33

-
Трэш-метал группа была основана в 1982 году четырьмя молодыми музыкантами: Дэни Беланже (вокал), Дэни Д’Амуром (гитара), Жаном-Ивом Терио (бас) и Мишелем Ланжевеном (ударные).
После Nothingface группа дрейфовала в более непринужденном стиле на следующих двух альбомах — Angel Rat (1991) и The Outer Limits (1993). После выхода The Outer Limits, группу покинул вокалист Дэни Беланже, оставляя статус существования группы под вопросом. Ему на смену пришёл басист/вокалист Эрик Форрест. Некоторое время спустя он начал формировать свой проект названный E-Force, так же, параллельно он участвовал в Failing Flesh, на короткий период оставив Voivod и уехав в Германию для участия в этих проектах, в 1998 году попал в автокатастрофу.[2]
После этого, Voivod официально объявил о возвращение вокалиста Дэни Беланже и нового басиста группы Джейсона Ньюстеда, ранее участника Flotsam and Jetsam и Metallica. В 2003 увидел свет их новый альбом, названный просто — Voivod. Прежний вокал Беланже, вместе с новым басистом, обеспечили основы будущего Voivod.
Voivod работал над новым альбомом в 2005, когда прозвучали грустные новости о состоянии здоровья гитариста Дэни Д’Амура. 26 августа 2005 года, на сорок пятом году жизни он скончался от рака кишечника.[3] Именно по его желанию все гитарные наработки были использованы после его смерти в будущем альбоме 2006 года, названного Katorz (от фр. quatorze — четырнадцать). Летом 2009 года группа выпустила 12-й студийный альбом Infini, в который также вошли композиции, записанные до смерти Дэни Д’Амура.
Свой новый альбом Voivod назвали Target Earth. Выход альбома должен состояться до конца 2012 года. В оформлении Target Earth будет использоваться новый логотип группы, разработанный Мишелем Ланжевеном. Target Earth был записан в январе 2012 года в студии Wild, которая принадлежит Пьеру Ремильяру и находится в маленьком городке Сент-Зенон в канадской провинции Квебек. На диск войдут первые сочинения группы с новым гитаристом Даниелем “Чуви” Монгрейном.
"Target Earth" – новый альбом от канадских новаторов метала VOIVOD.
Диск будет выпущен через собственный лэйбл группы Iron Gang Factory и Century Media в следующие сроки:
Германия, Австрия, Швейцария, Норвегия - 18 января
Северная Америка, Испания, Италия - 22 января
Швеция, Венгрия - 23 января
Австралия, Новая Зеландия, Финляндия -25 января
Остальная Европа - 21 январь
"Target Earth" был записан в январе 2012 года в студии Пьера Ремиларда (Pierre Remillard; OBLIVEON, CRYPTOPSY, KRISIUN, MISERY INDEX) в маленьком канадском городке под названием Сен-Зенон.
"Target Earth" будет доступен также в виде 2LP в различных цветах, плюс будет выпущен специальный CM Distro бокс тиражом 1000 экземпляров со следующим содержанием:
*"Target Earth" медиа диск (вкл. два бонусных лайв трэка и альтернативную обложку)
*Диск "Live At Roadburn 2011" (10 лайв трэков и четрех страничный буклет)
* Ремень VOIVOD
* Постер (альтернативная обложка)
* 2 наклейки
*3 открытки с арт работами драммера Мишеля Ланжвина (Michel "Away" Langevin)
Общее
Полное имя : C:\Documents and Settings\Admin\Мои документы\Voivod - Target Earth (2013) [320]\01 - Target Earth.mp3
Формат : MPEG Audio
Размер файла : 13,9 Мбайт
Продолжительность : 6 м. 4 с.
Режим общего битрейта : Постоянный
Общий поток : 320 Кбит/сек
Альбом : Target Earth
Альбом/Исполнитель : Voivod
Часть/Положение : 1
Часть/Всего : 1
Трек : Target Earth
Трек/Положение : 01
Трек/Всего : 10
Исполнитель : Voivod
Жанр : Metal
Дата записи : 2013
Библиотека кодирования : LAME3.98r
Аудио
Формат : MPEG Audio
Версия формата : Version 1
Профиль формата : Layer 3
Режим : Joint stereo
Продолжительность : 6 м. 5 с.
Вид битрейта : Постоянный
Битрейт : 320 Кбит/сек
Каналы : 2 канала
Частота : 44,1 КГц
Метод сжатия : С потерями
Размер потока : 13,9 Мбайт (100%)
Библиотека кодирования : LAME3.98r
Настройки программы : -m j -V 4 -q 3 -lowpass 20.5
Общее
Полное имя : C:\Documents and Settings\Admin\Мои документы\Voivod - Target Earth (2013) [320]\02 - Kluskap O'Kom.mp3
Формат : MPEG Audio
Размер файла : 10,1 Мбайт
Продолжительность : 4 м. 24 с.
Режим общего битрейта : Постоянный
Общий поток : 320 Кбит/сек
Альбом : Target Earth
Альбом/Исполнитель : Voivod
Часть/Положение : 1
Часть/Всего : 1
Трек : Kluskap O'Kom
Трек/Положение : 02
Трек/Всего : 10
Исполнитель : Voivod
Жанр : Metal
Дата записи : 2013
Библиотека кодирования : LAME3.98r
Аудио
Формат : MPEG Audio
Версия формата : Version 1
Профиль формата : Layer 3
Режим : Joint stereo
Продолжительность : 4 м. 24 с.
Вид битрейта : Постоянный
Битрейт : 320 Кбит/сек
Каналы : 2 канала
Частота : 44,1 КГц
Метод сжатия : С потерями
Размер потока : 10,1 Мбайт (100%)
Библиотека кодирования : LAME3.98r
Настройки программы : -m j -V 4 -q 3 -lowpass 20.5
Общее
Полное имя : C:\Documents and Settings\Admin\Мои документы\Voivod - Target Earth (2013) [320]\03 - Empathy for the Enemy.mp3
Формат : MPEG Audio
Размер файла : 13,2 Мбайт
Продолжительность : 5 м. 46 с.
Режим общего битрейта : Постоянный
Общий поток : 320 Кбит/сек
Альбом : Target Earth
Альбом/Исполнитель : Voivod
Часть/Положение : 1
Часть/Всего : 1
Трек : Empathy for the Enemy
Трек/Положение : 03
Трек/Всего : 10
Исполнитель : Voivod
Жанр : Metal
Дата записи : 2013
Библиотека кодирования : LAME3.98r
Аудио
Формат : MPEG Audio
Версия формата : Version 1
Профиль формата : Layer 3
Режим : Joint stereo
Продолжительность : 5 м. 46 с.
Вид битрейта : Постоянный
Битрейт : 320 Кбит/сек
Каналы : 2 канала
Частота : 44,1 КГц
Метод сжатия : С потерями
Размер потока : 13,2 Мбайт (100%)
Библиотека кодирования : LAME3.98r
Настройки программы : -m j -V 4 -q 3 -lowpass 20.5
Общее
Полное имя : C:\Documents and Settings\Admin\Мои документы\Voivod - Target Earth (2013) [320]\04 - Mechanical Mind.mp3
Формат : MPEG Audio
Размер файла : 17,4 Мбайт
Продолжительность : 7 м. 35 с.
Режим общего битрейта : Постоянный
Общий поток : 320 Кбит/сек
Альбом : Target Earth
Альбом/Исполнитель : Voivod
Часть/Положение : 1
Часть/Всего : 1
Трек : Mechanical Mind
Трек/Положение : 04
Трек/Всего : 10
Исполнитель : Voivod
Жанр : Metal
Дата записи : 2013
Библиотека кодирования : LAME3.98r
Аудио
Формат : MPEG Audio
Версия формата : Version 1
Профиль формата : Layer 3
Режим : Joint stereo
Продолжительность : 7 м. 36 с.
Вид битрейта : Постоянный
Битрейт : 320 Кбит/сек
Каналы : 2 канала
Частота : 44,1 КГц
Метод сжатия : С потерями
Размер потока : 17,4 Мбайт (100%)
Библиотека кодирования : LAME3.98r
Настройки программы : -m j -V 4 -q 3 -lowpass 20.5
Общее
Полное имя : C:\Documents and Settings\Admin\Мои документы\Voivod - Target Earth (2013) [320]\05 - Warchaic.mp3
Формат : MPEG Audio
Размер файла : 16,1 Мбайт
Продолжительность : 7 м. 1 с.
Режим общего битрейта : Постоянный
Общий поток : 320 Кбит/сек
Альбом : Target Earth
Альбом/Исполнитель : Voivod
Часть/Положение : 1
Часть/Всего : 1
Трек : Warchaic
Трек/Положение : 05
Трек/Всего : 10
Исполнитель : Voivod
Жанр : Metal
Дата записи : 2013
Библиотека кодирования : LAME3.98r
Аудио
Формат : MPEG Audio
Версия формата : Version 1
Профиль формата : Layer 3
Режим : Joint stereo
Продолжительность : 7 м. 1 с.
Вид битрейта : Постоянный
Битрейт : 320 Кбит/сек
Каналы : 2 канала
Частота : 44,1 КГц
Метод сжатия : С потерями
Размер потока : 16,1 Мбайт (100%)
Библиотека кодирования : LAME3.98r
Настройки программы : -m j -V 4 -q 3 -lowpass 20.5
Общее
Полное имя : C:\Documents and Settings\Admin\Мои документы\Voivod - Target Earth (2013) [320]\06 - Resistance.mp3
Формат : MPEG Audio
Размер файла : 15,5 Мбайт
Продолжительность : 6 м. 45 с.
Режим общего битрейта : Постоянный
Общий поток : 320 Кбит/сек
Альбом : Target Earth
Альбом/Исполнитель : Voivod
Часть/Положение : 1
Часть/Всего : 1
Трек : Resistance
Трек/Положение : 06
Трек/Всего : 10
Исполнитель : Voivod
Жанр : Metal
Дата записи : 2013
Библиотека кодирования : LAME3.98r
Аудио
Формат : MPEG Audio
Версия формата : Version 1
Профиль формата : Layer 3
Режим : Joint stereo
Продолжительность : 6 м. 46 с.
Вид битрейта : Постоянный
Битрейт : 320 Кбит/сек
Каналы : 2 канала
Частота : 44,1 КГц
Метод сжатия : С потерями
Размер потока : 15,5 Мбайт (100%)
Библиотека кодирования : LAME3.98r
Настройки программы : -m j -V 4 -q 3 -lowpass 20.5
Общее
Полное имя : C:\Documents and Settings\Admin\Мои документы\Voivod - Target Earth (2013) [320]\07 - Kaleidos.mp3
Формат : MPEG Audio
Размер файла : 14,8 Мбайт
Продолжительность : 6 м. 27 с.
Режим общего битрейта : Постоянный
Общий поток : 320 Кбит/сек
Альбом : Target Earth
Альбом/Исполнитель : Voivod
Часть/Положение : 1
Часть/Всего : 1
Трек : Kaleidos
Трек/Положение : 07
Трек/Всего : 10
Исполнитель : Voivod
Жанр : Metal
Дата записи : 2013
Библиотека кодирования : LAME3.98r
Аудио
Формат : MPEG Audio
Версия формата : Version 1
Профиль формата : Layer 3
Режим : Joint stereo
Расширение режима : MS Stereo
Продолжительность : 6 м. 28 с.
Вид битрейта : Постоянный
Битрейт : 320 Кбит/сек
Каналы : 2 канала
Частота : 44,1 КГц
Метод сжатия : С потерями
Размер потока : 14,8 Мбайт (100%)
Библиотека кодирования : LAME3.98r
Настройки программы : -m j -V 4 -q 3 -lowpass 20.5
Общее
Полное имя : C:\Documents and Settings\Admin\Мои документы\Voivod - Target Earth (2013) [320]\08 - Corps Ètranger.mp3
Формат : MPEG Audio
Размер файла : 10,5 Мбайт
Продолжительность : 4 м. 35 с.
Режим общего битрейта : Постоянный
Общий поток : 320 Кбит/сек
Альбом : Target Earth
Альбом/Исполнитель : Voivod
Часть/Положение : 1
Часть/Всего : 1
Трек : Corps Ètranger
Трек/Положение : 08
Трек/Всего : 10
Исполнитель : Voivod
Жанр : Metal
Дата записи : 2013
Библиотека кодирования : LAME3.98r
Аудио
Формат : MPEG Audio
Версия формата : Version 1
Профиль формата : Layer 3
Режим : Joint stereo
Продолжительность : 4 м. 35 с.
Вид битрейта : Постоянный
Битрейт : 320 Кбит/сек
Каналы : 2 канала
Частота : 44,1 КГц
Метод сжатия : С потерями
Размер потока : 10,5 Мбайт (100%)
Библиотека кодирования : LAME3.98r
Настройки программы : -m j -V 4 -q 3 -lowpass 20.5
Общее
Полное имя : C:\Documents and Settings\Admin\Мои документы\Voivod - Target Earth (2013) [320]\09 - Artefact.mp3
Формат : MPEG Audio
Размер файла : 14,7 Мбайт
Продолжительность : 6 м. 26 с.
Режим общего битрейта : Постоянный
Общий поток : 320 Кбит/сек
Альбом : Target Earth
Альбом/Исполнитель : Voivod
Часть/Положение : 1
Часть/Всего : 1
Трек : Artefact
Трек/Положение : 09
Трек/Всего : 10
Исполнитель : Voivod
Жанр : Metal
Дата записи : 2013
Библиотека кодирования : LAME3.98r
Аудио
Формат : MPEG Audio
Версия формата : Version 1
Профиль формата : Layer 3
Режим : Joint stereo
Продолжительность : 6 м. 26 с.
Вид битрейта : Постоянный
Битрейт : 320 Кбит/сек
Каналы : 2 канала
Частота : 44,1 КГц
Метод сжатия : С потерями
Размер потока : 14,7 Мбайт (100%)
Библиотека кодирования : LAME3.98r
Настройки программы : -m j -V 4 -q 3 -lowpass 20.5
Общее
Полное имя : C:\Documents and Settings\Admin\Мои документы\Voivod - Target Earth (2013) [320]\10 - Defiance.mp3
Формат : MPEG Audio
Размер файла : 3,53 Мбайт
Продолжительность : 1 м. 32 с.
Режим общего битрейта : Постоянный
Общий поток : 320 Кбит/сек
Альбом : Target Earth
Альбом/Исполнитель : Voivod
Часть/Положение : 1
Часть/Всего : 1
Трек : Defiance
Трек/Положение : 10
Трек/Всего : 10
Исполнитель : Voivod
Жанр : Metal
Дата записи : 2013
Библиотека кодирования : LAME3.98r
Аудио
Формат : MPEG Audio
Версия формата : Version 1
Профиль формата : Layer 3
Режим : Joint stereo
Продолжительность : 1 м. 32 с.
Вид битрейта : Постоянный
Битрейт : 320 Кбит/сек
Каналы : 2 канала
Частота : 44,1 КГц
Метод сжатия : С потерями
Размер потока : 3,53 Мбайт (100%)
Библиотека кодирования : LAME3.98r
Настройки программы : -m j -V 4 -q 3 -lowpass 20.5
Общее
Полное имя : C:\Documents and Settings\Admin\Мои документы\Voivod - Target Earth (2013) [320]\cover 1000 1000.jpg
Формат : JPEG
Размер файла : 264 Кбайт
Изображения
Формат : JPEG
Ширина : 1000 пикселей
Высота : 1000 пикселей
Цветовое пространство : YUV
Субдискретизация насыщенности : 4:2:0
Битовая глубина : 8 бит
Метод сжатия : С потерями
Размер потока : 264 Кбайт (100%)
Общее
Полное имя : C:\Documents and Settings\Admin\Мои документы\Voivod - Target Earth (2013) [320]\cover 500 500.jpg
Формат : JPEG
Размер файла : 227 Кбайт
Изображения
Формат : JPEG
Ширина : 500 пикселей
Высота : 500 пикселей
Цветовое пространство : YUV
Субдискретизация насыщенности : 4:4:4
Битовая глубина : 8 бит
Метод сжатия : С потерями
Размер потока : 227 Кбайт (100%)
Общее
Полное имя : C:\Documents and Settings\Admin\Мои документы\Voivod - Target Earth (2013) [320]\Thumbs.db
Размер файла : 10,0 Кбайт
Download / Скачать

Хотите скачать бесплатно? Зарегистрируйтесь на сайте (ссылка на регистрацию). Pirat.ca - самый быстрый торрент трекер в рунете!

Как скачивать  ·   Что такое торрент  ·   Рейтинг и ограничения

Показать сообщения:    
Ответить на тему

Текущее время: Сегодня 09:03

Часовой пояс: GMT + 4



Вы не можете начинать темы
Вы не можете отвечать на сообщения
Вы не можете редактировать свои сообщения
Вы не можете удалять свои сообщения
Вы не можете голосовать в опросах
Вы не можете прикреплять файлы к сообщениям
Вы не можете скачивать файлы

Майнать ▼