ML
     
  Уважаемый Гость!
Вы можете поддержать проект и зарегистрироваться у наших партнеров - онлайн-стратегия MyLands. При регистрации в игре Вы получите код, который сможете активировать после регистрации на pirat.ca и получить 1000 дублонов.

Ваш код:
0af2e2107bc9b5dd5ac2c09f9fc25e1a77c43887
 
     

От заката до рассвета: Трилогия / From Dusk Till Dawn: The Trilogy (Роберт Родригес / Robert Rodriguez, Скотт Спигел / Scott Spiegel, П.Дж. Пеше / P.J. Pesce) (Ужасы, Триллер, Боевик) [1996-1999 Г.] MVO

Ответить на тему
 
Автор
Сообщение

Пост 25-Ноя-2012 12:39

[Q] 

Jigsaw

 
-От заката до рассвета: трилогия / From Dusk Till Dawn: The Trilogy-
От заката до рассвета
From Dusk Till Dawn
«How far can Too Far go?»
-- Производство: США
Год выпуска: 1996 г.
Жанр: ужасы, боевик, триллер, фэнтези, комедия, криминал
Продолжительность: 01:47:50
Мировая премьера: 19 января 1996
Дата выхода DVD: 26 мая 2008, «West Video»
Перевод: Профессиональный (многоголосый, закадровый)
Оригинальный аудиопоток: английский
Режиссер: Роберт Родригес / Robert Rodriguez-В ролях: Харви Кейтель, Джордж Клуни, Квентин Тарантино, Джульетт Льюис, Эрнест Лю, Сальма Хайек, Чич Марин, Дэнни Трехо, Том Савини, Фред Уильямсон-Описание: Спасаясь от полиции после ограбления банка, два брата — грабителя берут в заложники священника и его детей. Около американской границы они решают провести ночь в придорожном баре. Тут то всё и начинается…- Качество видео: BDRip
Формат видео: AVI
Видео кодек: XviD
Аудио кодек: AC3
Видео: MPEG4, XviD, 720x400 (16:9), 23.976 fps, 1 349 Kbps (0.195 bit/pixel)
Аудио: Rus: AC-3, 48.0 KHz, 6 ch, 384 Kbps, CBR (MVO)
Аудио #2: Eng: AC-3, 48.0 KHz, 2 ch, 192 Kbps, CBR (original)
Cубтитры: русские (отдельным файлом)
Общее
Полное имя : F:\Ot_zakata_do_rassveta\Ot_zakata_do_rassveta.avi
Формат : AVI
Формат/Информация : Audio Video Interleave
Размер файла : 1,46 Гбайт
Продолжительность : 1 ч. 47 м.
Общий поток : 1939 Кбит/сек
Название фильма : From Dusk Till Dawn 1996
Программа кодирования : VirtualDubMod 1.5.10.2 (build 2540/release)
Видео
Идентификатор : 0
Формат : MPEG-4 Visual
Профиль формата : Advanced [email protected]
Параметр BVOP формата : 1
Параметр QPel формата : Нет
Параметр GMC формата : Без точки перехода
Параметр матрицы формата : Выборочная
Идентификатор кодека : XVID
Идентификатор кодека/Подсказка : XviD
Продолжительность : 1 ч. 47 м.
Битрейт : 1349 Кбит/сек
Ширина : 720 пикселей
Высота : 400 пикселей
Соотношение сторон : 16:9
Частота кадров : 23,976 кадра/сек
Цветовое пространство : YUV
Субдискретизация насыщенности : 4:2:0
Битовая глубина : 8 бит
Тип развёртки : Прогрессивная
Метод сжатия : С потерями
Бит/(Пиксели*Кадры) : 0.195
Размер потока : 1,02 Гбайт (70%)
Библиотека кодирования : XviD 1.2.1 (UTC 2008-12-04)
Аудио #1
Идентификатор : 1
Формат : AC-3
Формат/Информация : Audio Coding 3
Расширение режима : CM (complete main)
Параметр Endianness формата : Big
Идентификатор кодека : 2000
Продолжительность : 1 ч. 47 м.
Вид битрейта : Постоянный
Битрейт : 384 Кбит/сек
Каналы : 6 каналов
Расположение каналов : Front: L C R, Side: L R, LFE
Частота : 48,0 КГц
Битовая глубина : 16 бит
Метод сжатия : С потерями
Задержка видео : 540 мс.
Размер потока : 296 Мбайт (20%)
Выравнивание : Разделение по промежуткам
Продолжительность промежутка : 42 мс. (1,00 видеокадр)
Время предзагрузки промежутка : 500 мс.
Аудио #2
Идентификатор : 2
Формат : AC-3
Формат/Информация : Audio Coding 3
Расширение режима : CM (complete main)
Параметр Endianness формата : Big
Идентификатор кодека : 2000
Продолжительность : 1 ч. 47 м.
Вид битрейта : Постоянный
Битрейт : 192 Кбит/сек
Каналы : 2 канала
Расположение каналов : Front: L R
Частота : 48,0 КГц
Битовая глубина : 16 бит
Метод сжатия : С потерями
Размер потока : 148 Мбайт (10%)
Выравнивание : Разделение по промежуткам
Продолжительность промежутка : 42 мс. (1,00 видеокадр)
Время предзагрузки промежутка : 500 мс.
----От заката до рассвета 2 - Кровавые деньги из Техаса
From Dusk Till Dawn 2 - Texas Blood
«Just wade the edge of your mind, and you won't need money any more.»
-- Производство: США
Год выпуска: 1999 г.
Жанр: Ужасы, фэнтези, триллер, комедия, криминал
Продолжительность: 01:28:06
Мировая премьера: 16 марта 1999
Перевод: Профессиональный (многоголосый, закадровый)
Режиссер: Скотт Спигел / Scott Spiegel-В ролях: Роберт Патрик, Бо Хопкинс, Дуан Уайтакер, Мьюз Уотсон, Бретт Харрельсон, Рэймонд Крус, Дэнни Трехо, Джеймс Паркс, Стэйси Буржуа, Мария Чека-Описание: Пятеро крутых парней решают ограбить банк в Мексике. Они еще не сдвинулись с места, а полиция уже сидела на хвосте, разыскивая только что сбежавшего из-под стражи их сообщника Лютера. С ним Бак назначил встречу в пути. Все едва не сорвалось, когда ночью в дороге, неподалеку от бара «Крученые сиськи», у Лютера ломается машина…- Качество видео: HDRip
Формат видео: AVI
Видео кодек: XviD
Аудио кодек: AC3
Видео: MPEG4, XviD, 688x384 (16:9), 23.976 fps, 1 974 Kbps (0.312 bit/pixel)
Аудио: AC-3, 48.0 KHz, 6 ch, 384 Kbps, CBR (MVO)
Cубтитры: отсутствуют
Общее
Полное имя : F:\От заката до рассвета (1-3)\From.Dusk.Till.Dawn.2.1999.HDRip.avi
Формат : AVI
Формат/Информация : Audio Video Interleave
Размер файла : 1,46 Гбайт
Продолжительность : 1 ч. 28 м.
Общий поток : 2367 Кбит/сек
Программа кодирования : VirtualDubMod 1.5.10.3 | www.virtualdub-fr.org || (build 2550/release)
Библиотека кодирования : VirtualDubMod build 2550/release
Видео
Идентификатор : 0
Формат : MPEG-4 Visual
Профиль формата : Advanced [email protected]
Параметр BVOP формата : 2
Параметр QPel формата : Нет
Параметр GMC формата : Без точки перехода
Параметр матрицы формата : Выборочная
Идентификатор кодека : XVID
Идентификатор кодека/Подсказка : XviD
Продолжительность : 1 ч. 28 м.
Битрейт : 1974 Кбит/сек
Ширина : 688 пикселей
Высота : 384 пикселя
Соотношение сторон : 16:9
Частота кадров : 23,976 кадра/сек
Цветовое пространство : YUV
Субдискретизация насыщенности : 4:2:0
Битовая глубина : 8 бит
Тип развёртки : Прогрессивная
Метод сжатия : С потерями
Бит/(Пиксели*Кадры) : 0.312
Размер потока : 1,22 Гбайт (83%)
Библиотека кодирования : XviD 72
Аудио
Идентификатор : 1
Формат : AC-3
Формат/Информация : Audio Coding 3
Расширение режима : CM (complete main)
Параметр Endianness формата : Big
Идентификатор кодека : 2000
Продолжительность : 1 ч. 28 м.
Вид битрейта : Постоянный
Битрейт : 384 Кбит/сек
Каналы : 6 каналов
Расположение каналов : Front: L C R, Side: L R, LFE
Частота : 48,0 КГц
Битовая глубина : 16 бит
Метод сжатия : С потерями
Размер потока : 242 Мбайт (16%)
Выравнивание : Разделение по промежуткам
Продолжительность промежутка : 42 мс. (1,00 видеокадр)
Время предзагрузки промежутка : 500 мс.
----От заката до рассвета 3: Дочь палача
From Dusk Till Dawn 3: The Hangman's Daughter
«Take part in some amazing thrill-ride.»
-- Производство: США
Год выпуска: 1999 г.
Жанр: ужасы, боевик, триллер, комедия, приключения, вестерн
Продолжительность: 01:30:16
Мировая премьера: 31 октября 1999
Перевод: Профессиональный (многоголосый, закадровый)
Оригинальный аудиопоток: английский
Режиссер: П.Дж. Пеше / P.J. Pesce-В ролях: Марко Леонарди, Майкл Паркс, Темуэра Моррисон, Ребекка Гэйхарт, Ара Сели, Ленни Лофтин, Соня Брага, Орландо Джонс, Дэнни Трехо, Джордана Спиро-Описание: Такие отчаянные бандиты, как Джонни, рано или поздно оказываются на виселице. На этот раз Джонни повезло: в безумной перестрелке таинственный незнакомец спасает его от смерти, и он бежит, похитив дочь своего палача — Эсмеральду. Взбешенный и опозоренный, палач бросается в погоню. И когда возмездие было почти неизбежным, яростные противники оказываются перед лицом общей угрозы, способной изменить все. И навсегда…- Качество видео: DVDRip
Формат видео: AVI
Видео кодек: XviD
Аудио кодек: AC3
Видео: MPEG4, XviD, 720x544 (4:3), 25.000 fps, 1 726 Kbps (0.176 bit/pixel)
Аудио: Rus: AC-3, 48.0 KHz, 6 ch, 384 Kbps, CBR (MVO)
Аудио #2: Eng: AC-3, 48.0 KHz, 2 ch, 192 Kbps, CBR (original)
Cубтитры: отсутствуют
Общее
Полное имя : F:\От заката до рассвета (1-3)\Ot_zakata_do_rassveta_3\Ot_zakata_do_rassveta_3.avi
Формат : AVI
Формат/Информация : Audio Video Interleave
Размер файла : 1,46 Гбайт
Продолжительность : 1 ч. 30 м.
Общий поток : 2316 Кбит/сек
Название фильма : From Dusk Till Dawn 3: The Hangman's Daughter 1999
Программа кодирования : VirtualDubMod 1.5.10.2 (build 2540/release)
Видео
Идентификатор : 0
Формат : MPEG-4 Visual
Профиль формата : Advanced [email protected]
Параметр BVOP формата : 1
Параметр QPel формата : Нет
Параметр GMC формата : Без точки перехода
Параметр матрицы формата : Выборочная
Идентификатор кодека : XVID
Идентификатор кодека/Подсказка : XviD
Продолжительность : 1 ч. 30 м.
Битрейт : 1726 Кбит/сек
Ширина : 720 пикселей
Высота : 544 пикселя
Соотношение сторон : 4:3
Частота кадров : 25,000 кадров/сек
Цветовое пространство : YUV
Субдискретизация насыщенности : 4:2:0
Битовая глубина : 8 бит
Тип развёртки : Прогрессивная
Метод сжатия : С потерями
Бит/(Пиксели*Кадры) : 0.176
Размер потока : 1,09 Гбайт (75%)
Библиотека кодирования : XviD 1.2.1 (UTC 2008-12-04)
Аудио #1
Идентификатор : 1
Формат : AC-3
Формат/Информация : Audio Coding 3
Расширение режима : CM (complete main)
Параметр Endianness формата : Big
Идентификатор кодека : 2000
Продолжительность : 1 ч. 30 м.
Вид битрейта : Постоянный
Битрейт : 384 Кбит/сек
Каналы : 6 каналов
Расположение каналов : Front: L C R, Side: L R, LFE
Частота : 48,0 КГц
Битовая глубина : 16 бит
Метод сжатия : С потерями
Размер потока : 248 Мбайт (17%)
Выравнивание : Разделение по промежуткам
Продолжительность промежутка : 40 мс. (1,00 видеокадр)
Время предзагрузки промежутка : 500 мс.
Аудио #2
Идентификатор : 2
Формат : AC-3
Формат/Информация : Audio Coding 3
Расширение режима : CM (complete main)
Параметр Endianness формата : Big
Идентификатор кодека : 2000
Продолжительность : 1 ч. 30 м.
Вид битрейта : Постоянный
Битрейт : 192 Кбит/сек
Каналы : 2 канала
Расположение каналов : Front: L R
Частота : 48,0 КГц
Битовая глубина : 16 бит
Метод сжатия : С потерями
Размер потока : 124 Мбайт (8%)
Выравнивание : Разделение по промежуткам
Продолжительность промежутка : 40 мс. (1,00 видеокадр)
Время предзагрузки промежутка : 500 мс.
-

Download / Скачать

Хотите скачать бесплатно? Зарегистрируйтесь на сайте (ссылка на регистрацию). Pirat.ca - самый быстрый торрент трекер в рунете!

Как скачивать  ·   Что такое торрент  ·   Рейтинг и ограничения



Последний раз редактировалось: Jigsaw (2012-11-25 13:41), всего редактировалось 1 раз

pavel1971

Штурман

Пост 25-Ноя-2012 18:45 (спустя 6 часов)

[Q] 

раздачу кинте спасибо bc
[Профиль]  [ЛС] 

ivan.tratil 67

Корсар

Пост 27-Ноя-2012 05:58 (спустя 1 день 11 часов)

[Q] 

[Профиль]  [ЛС] 

MihaMiha66

Морской Волк

Пост 13-Фев-2013 23:51 (спустя 2 месяца 16 дней)

[Q] 

[Профиль]  [ЛС] 

svandr

Морской Волк

133

Пост 24-Июл-2013 15:01 (спустя 5 месяцев 10 дней)

[Q] 

А где вторая?
[Профиль]  [ЛС] 

Прораб

Легенда

Пост 28-Авг-2013 21:35 (спустя 1 месяц 4 дня)

[Q] 

Лови бочку Спасибо!!!

_________________
Config comp: CPU-i7-2600K/RAM-32Gb/GF580GTX-1536Mb/RAID0(2 SSD-480GB)+RAID5(8 HDD-20Tb)/Win7 64bit.
[Профиль]  [ЛС] 
Показать сообщения:    
Ответить на тему

Текущее время: Сегодня 00:08

Часовой пояс: GMT + 4



Вы не можете начинать темы
Вы не можете отвечать на сообщения
Вы не можете редактировать свои сообщения
Вы не можете удалять свои сообщения
Вы не можете голосовать в опросах
Вы не можете прикреплять файлы к сообщениям
Вы не можете скачивать файлы

▼ Вниз