ML
     
  Уважаемый Гость!
Вы можете поддержать проект и зарегистрироваться у наших партнеров - онлайн-стратегия MyLands. При регистрации в игре Вы получите код, который сможете активировать после регистрации на pirat.ca и получить 1000 дублонов.

Ваш код:
47bfc18b89c74e4ae0d974e9b6943639e2bff08e
 
     

Хеллбой. Дилогия / Hellboy. Duology [2004, 2008, боевик, фэнтези, приключения, BDRip 1080p] Dub + MVO + VO + Original (Eng)

Ответить на тему
 
Автор
Сообщение

Пост 17-Дек-2012 01:03

[Q] 

stellrat

Шкипер

Хеллбой. Дилогия / Hellboy. DuologyХеллбой: Герой из пекла / Hellboy (Director's Cut)
Год выпуска: 2004
Страна: США
Слоган: «In the Absence of Light Darkness Prevails»
Жанр: боевик, фэнтези, приключения
Продолжительность: 02:12:28
Перевод: Профессиональный (полное дублирование со вставками многоголосого) / Профессиональный (многоголосый, закадровый) / Профессиональный (одноголосый, закадровый) (Гоблин) / Оригинальная дорожка
Субтитры: русские, английские - srt
Режиссер: Гильермо Дель Торо / Guillermo del Toro
В ролях: Рон Перлман, Джон Хёрт, Сэльма Блэр, Руперт Эванс, Карел Роден, Джеффри Тэмбор, Даг Джонс, Брайан Стил, Ладислав Беран, Бидди Ходсон
Описание: Вторая мировая война. Нацисты терпят одно сокрушительное поражение за другим. В результате исследования оккультных ритуалов в супер-секретной лаборатории ученым, работающим на фашистский режим, удается поднять из небытия Демона Ада, который должен помочь переломить ход войны.
Но в научную лабораторию тайно проникает отряд союзников и поворачивает это мистическое и грозное оружие против нацистов. Однако никто из участников эксперимента и не предполагает, что врата потустороннего мира после открытия окажутся неподвластны людям, и им придется столкнуться с существами еще более опасными и непредсказуемыми, чем Демон Ада…

Доп. информация:
бюджет $66 000 000
маркетинг $30 000 000
сборы в США $59 623 958
сборы в мире + $39 695 029 = $99 318 987
сборы в России $1 490 000
Качество: BDRip-1080p
Формат: MKV
Видео кодек: H.264
Аудио кодек: DTS, AC3
Видео: 1920x1044, 23.976 fps, 16.3 Mbps (HiDt)
Аудио 1: Русский AC3, 5.1, 48 Khz, 16 bits, ~640 kbps [Дубляж со вставками многоголосого]
Аудио 2: Русский DTS, 5.1, 48 Khz, 24 bits, ~1510 kbps [Профессиональный (одноголосый, закадровый) (Гоблин)]
Аудио 3: Русский AC3, 5.1, 48 Khz, 16 bits, ~384 kbps [Киномания]
Аудио 3: Английский DTS, 5.1, 48 Khz, 24 bits, ~1510 Kbps
Complete name : Hellboy.2004.1080p.Director's.Cut.BluRay.DTS.x264-HiDt.mkv
Format : Matroska
File size : 18.9 GiB
Duration : 2h 12mn
Overall bit rate : 20.4 Mbps
Encoded date : UTC 2010-10-01 12:22:01
Writing application : mkvmerge v3.3.0 ('Language') built on Mar 24 2010 14:59:24
Writing library : libebml v0.8.0 + libmatroska v0.9.0
Video #1
ID : 1
Format : AVC
Format/Info : Advanced Video Codec
Format profile : [email protected]
Format settings, CABAC : Yes
Format settings, ReFrames : 4 frames
Muxing mode : Container [email protected]
Codec ID : V_MPEG4/ISO/AVC
Duration : 2h 12mn
Bit rate : 16.4 Mbps
Width : 1 920 pixels
Height : 1 044 pixels
Display aspect ratio : 16:9
Frame rate : 23.976 fps
Color space : YUV
Chroma subsampling : 4:2:0
Bit depth : 8 bits
Scan type : Progressive
Bits/(Pixel*Frame) : 0.341
Stream size : 14.8 GiB (78%)
Title : x264
Writing library : x264 core 98 r1649 20cbe10
Encoding settings : cabac=1 / ref=4 / deblock=1:-3:-3 / analyse=0x3:0x113 / me=umh / subme=10 / psy=1 / psy_rd=1.00:0.00 / mixed_ref=1 / me_range=64 / chroma_me=1 / trellis=2 / 8x8dct=1 / cqm=0 / deadzone=21,11 / fast_pskip=0 / chroma_qp_offset=-2 / threads=6 / sliced_threads=0 / nr=0 / decimate=1 / interlaced=0 / constrained_intra=0 / bframes=6 / b_pyramid=2 / b_adapt=2 / b_bias=0 / direct=3 / weightb=1 / weightp=2 / keyint=250 / keyint_min=25 / scenecut=40 / intra_refresh=0 / rc_lookahead=80 / rc=2pass / mbtree=1 / bitrate=16366 / ratetol=1.0 / qcomp=0.60 / qpmin=10 / qpmax=51 / qpstep=4 / cplxblur=20.0 / qblur=0.5 / ip_ratio=1.40 / aq=1:0.80
Language : English
Audio #2
ID : 2
Format : DTS
Format/Info : Digital Theater Systems
Codec ID : A_DTS
Duration : 2h 12mn
Bit rate mode : Constant
Bit rate : 1 510 Kbps
Channel(s) : 6 channels
Channel positions : Front: L C R, Side: L R, LFE
Sampling rate : 48.0 KHz
Bit depth : 24 bits
Stream size : 1.40 GiB (7%)
Title : DTS 5.1
Language : English
Audio #3
ID : 3
Format : AC-3
Format/Info : Audio Coding 3
Mode extension : CM (complete main)
Codec ID : A_AC3
Duration : 2h 12mn
Bit rate mode : Constant
Bit rate : 640 Kbps
Channel(s) : 6 channels
Channel positions : Front: L C R, Side: L R, LFE
Sampling rate : 48.0 KHz
Bit depth : 16 bits
Stream size : 606 MiB (3%)
Title : AC3 5.1 @ 640 kbps - Дубляж
Language : Russian
Audio #4
ID : 4
Format : AC-3
Format/Info : Audio Coding 3
Mode extension : CM (complete main)
Codec ID : A_AC3
Duration : 2h 12mn
Bit rate mode : Constant
Bit rate : 384 Kbps
Channel(s) : 6 channels
Channel positions : Front: L C R, Side: L R, LFE
Sampling rate : 48.0 KHz
Bit depth : 16 bits
Stream size : 364 MiB (2%)
Title : AC3 5.1 @ 384 kbps - Киномания
Audio #5
ID : 5
Format : DTS
Format/Info : Digital Theater Systems
Codec ID : A_DTS
Duration : 2h 12mn
Bit rate mode : Constant
Bit rate : 1 510 Kbps
Channel(s) : 6 channels
Channel positions : Front: L C R, Side: L R, LFE
Sampling rate : 48.0 KHz
Bit depth : 24 bits
Stream size : 1.40 GiB (7%)
Title : DTS 5.1 @ 1510 kbps - Гоблин
Language : Russian
Text #6
ID : 6
Format : UTF-8
Codec ID : S_TEXT/UTF8
Codec ID/Info : UTF-8 Plain Text
Language : Russian
Text #7
ID : 7
Format : UTF-8
Codec ID : S_TEXT/UTF8
Codec ID/Info : UTF-8 Plain Text
Language : English
Хеллбой II: Золотая армия / Hellboy II: The Golden Army
Год выпуска: 2008
Страна: Германия, США
Слоган: «Золотая орда»
Жанр: боевик, фэнтези, приключения
Продолжительность: 01:59:40
Перевод: Профессиональный (полное дублирование) / Профессиональный (многоголосый, закадровый) / Оригинальная дорожка
Субтитры: русские (полные, forced), английские - srt
Режиссер: Гильермо Дель Торо / Guillermo del Toro
В ролях: Рон Перлман Сэльма Блэр Даг Джонс Джон Александр Джеймс Додд Сет МакФарлейн Люк Госс Анна Уолтон Джефри Тэмбор Джон Хёрт
Описание: После того как древнее перемирие между человечеством и тайным миром было нарушено, на Земле вот-вот разверзнется ад. Безжалостный лидер, вхожий в оба мира, бросает вызов своей крови и пробуждает на свет неодолимую армию чудовищ.
Настало время самому Хэллбою сразиться с беспощадным диктатором и его воинами. Вместе со своей пополняющей ряды командой «Бюро Паранормальных Исследований и Развития» он будет бороздить границы двух миров — нашего и скрытого, где самые невероятные существа обретают плоть. Хэллбою, порожденному обоими мирами, но не принадлежащему ни одному из них, предстоит выбирать между жизнью, которую он знает, и неизвестностью новой судьбы.

Доп. информация:
бюджет $85 000 000
сборы в США $75 986 503
сборы в мире + $84 401 560 = $160 388 063
сборы в России $8 562 600
Качество: BDRip-1080p
Формат: MKV
Видео кодек: H.264
Аудио кодек: DTS, AC3
Видео: 1920x1040, 23.976 fps, 15.5 Mbps (HiDt)
Аудио 1: Русский DTS, 5.1, 48 Khz, 24 bits, ~768 kbps [Дубляж]
Аудио 2: Русский DTS, 5.1, 48 Khz, 24 bits, ~1510 kbps [С.Р.И. Кравец]
Аудио 3: Английский DTS, 5.1, 48 Khz, 24 bits, ~1510 Kbps
Complete name : Hellboy.II.The.Golden.Army.2008.1080p.BluRay.DTS.x264-HiDt.mkv
Format : Matroska
File size : 16.2 GiB
Duration : 1h 59mn
Overall bit rate : 19.4 Mbps
Encoded date : UTC 2010-10-01 12:37:19
Writing application : mkvmerge v3.3.0 ('Language') built on Mar 24 2010 14:59:24
Writing library : libebml v0.8.0 + libmatroska v0.9.0
Video #1
ID : 1
Format : AVC
Format/Info : Advanced Video Codec
Format profile : [email protected]
Format settings, CABAC : Yes
Format settings, ReFrames : 4 frames
Muxing mode : Container [email protected]
Codec ID : V_MPEG4/ISO/AVC
Duration : 1h 59mn
Bit rate : 15.6 Mbps
Width : 1 920 pixels
Height : 1 040 pixels
Display aspect ratio : 16:9
Frame rate : 23.976 fps
Color space : YUV
Chroma subsampling : 4:2:0
Bit depth : 8 bits
Scan type : Progressive
Bits/(Pixel*Frame) : 0.326
Stream size : 12.7 GiB (79%)
Title : x264
Writing library : x264 core 105 r1722 01e9f8c
Encoding settings : cabac=1 / ref=4 / deblock=1:-3:-3 / analyse=0x3:0x113 / me=umh / subme=10 / psy=1 / psy_rd=1.00:0.00 / mixed_ref=1 / me_range=64 / chroma_me=1 / trellis=2 / 8x8dct=1 / cqm=0 / deadzone=21,11 / fast_pskip=0 / chroma_qp_offset=-2 / threads=12 / sliced_threads=0 / nr=0 / decimate=1 / interlaced=0 / constrained_intra=0 / bframes=6 / b_pyramid=2 / b_adapt=2 / b_bias=0 / direct=3 / weightb=1 / open_gop=0 / weightp=2 / keyint=250 / keyint_min=23 / scenecut=40 / intra_refresh=0 / rc_lookahead=120 / rc=2pass / mbtree=1 / bitrate=15592 / ratetol=1.0 / qcomp=0.60 / qpmin=10 / qpmax=51 / qpstep=4 / cplxblur=20.0 / qblur=0.5 / ip_ratio=1.40 / aq=1:0.80
Language : English
Audio #2
ID : 2
Format : DTS
Format/Info : Digital Theater Systems
Codec ID : A_DTS
Duration : 1h 59mn
Bit rate mode : Constant
Bit rate : 1 510 Kbps
Channel(s) : 6 channels
Channel positions : Front: L C R, Side: L R, LFE
Sampling rate : 48.0 KHz
Bit depth : 24 bits
Stream size : 1.26 GiB (8%)
Title : DTS 5.1
Language : English
Audio #3
ID : 3
Format : DTS
Format/Info : Digital Theater Systems
Codec ID : A_DTS
Duration : 1h 59mn
Bit rate mode : Constant
Bit rate : 755 Kbps
Channel(s) : 6 channels
Channel positions : Front: L C R, Side: L R, LFE
Sampling rate : 48.0 KHz
Bit depth : 24 bits
Stream size : 647 MiB (4%)
Title : DTS 5.1 @ 768 kbps - Дубляж
Language : Russian
Audio #4
ID : 4
Format : DTS
Format/Info : Digital Theater Systems
Codec ID : A_DTS
Duration : 1h 59mn
Bit rate mode : Constant
Bit rate : 1 510 Kbps
Channel(s) : 6 channels
Channel positions : Front: L C R, Side: L R, LFE
Sampling rate : 48.0 KHz
Bit depth : 24 bits
Stream size : 1.26 GiB (8%)
Title : DTS 5.1 @ 1510 kbps - С.Р.И. "Kravec"
Language : Russian
Text #5
ID : 5
Format : UTF-8
Codec ID : S_TEXT/UTF8
Codec ID/Info : UTF-8 Plain Text
Title : forced
Language : Russian
Text #6
ID : 6
Format : UTF-8
Codec ID : S_TEXT/UTF8
Codec ID/Info : UTF-8 Plain Text
Language : Russian
Text #7
ID : 7
Format : UTF-8
Codec ID : S_TEXT/UTF8
Codec ID/Info : UTF-8 Plain Text
Language : English
Download / Скачать

Хотите скачать бесплатно? Зарегистрируйтесь на сайте (ссылка на регистрацию). Pirat.ca - самый быстрый торрент трекер в рунете!

Как скачивать  ·   Что такое торрент  ·   Рейтинг и ограничения



Последний раз редактировалось: stellrat (2012-12-17 16:02), всего редактировалось 5 раз(а)

Nagoran

Корсар

149

Пост 17-Дек-2012 07:30 (спустя 6 часов)

[Q] 

круть)
[Профиль]  [ЛС] 

pavian_025

Штурман

Пост 18-Дек-2012 14:00 (спустя 1 день 6 часов)

[Q] 

спасибо за сборник
[Профиль]  [ЛС] 

vata45

Морской Волк

13

Пост 25-Янв-2013 01:46 (спустя 1 месяц 6 дней)

[Q] 


_________________
Лучше ужасный конец, чем бесконечный ужас...
[Профиль]  [ЛС] 

okorm

889

Пост 20-Фев-2013 07:02 (спустя 26 дней)

[Q] 

[Профиль]  [ЛС] 

vodoleii

Шкипер

Пост 25-Май-2013 19:43 (спустя 3 месяца 5 дней)

[Q] 

[Профиль]  [ЛС] 

SuperBeTeR

Морской Волк

Пост 27-Июн-2013 10:49 (спустя 1 месяц 1 день)

[Q] 

Гильермо Дель Торо не подкачал, - про таких говорят, что не может снять плохое кино.
[Профиль]  [ЛС] 
Показать сообщения:    
Ответить на тему

Текущее время: Сегодня 07:01

Часовой пояс: GMT + 4



Вы не можете начинать темы
Вы не можете отвечать на сообщения
Вы не можете редактировать свои сообщения
Вы не можете удалять свои сообщения
Вы не можете голосовать в опросах
Вы не можете прикреплять файлы к сообщениям
Вы не можете скачивать файлы

▼ Вниз