ML
     
  Уважаемый Гость!
Вы можете поддержать проект и зарегистрироваться у наших партнеров - онлайн-стратегия MyLands. При регистрации в игре Вы получите код, который сможете активировать после регистрации на pirat.ca и получить 1000 дублонов.

Ваш код:
0ea1bf889af42fca5f67d0a391efb3400850ad7c
 
     

Пираты Карибского моря: Квадрология / Pirates of the Caribbean: Quadrology (Гор Вербински / Gore Verbinski; Роб Маршалл / Rob Marshall) [2003-2011, Фэнтези, Боевик, Приключения, BDRip] [Dub]

Ответить на тему
 
Автор
Сообщение

Пост 18-Дек-2011 12:47

[Q] 

Skay9

Шкипер

Пираты Карибского моря: Проклятие чёрной жемчужины / Pirates of the Caribbean: The curse of the black pearl
Год выпуска: 2003
Производство: США
Жанр: Фэнтези, Боевик, Приключения
Перевод: Профессиональный (полное дублирование)
Оригинальный аудиопоток: Английский
Режиссер: Гор Вербински / Gore Verbinski
В ролях: Джонни Депп, Джеффри Раш, Орландо Блум, Кэйра Найтли, Джек Дейвинпорт, Джонатан Прайс
Описание: Карибское море, XVII век. Однажды к острову Ямайки пристает корабль-призрак с рваными парусами и с него высаживаются свирепые головорезы во главе с неистовым капитаном Барбоссой. Неся смерть и хаос, команда "Черной жемчужины" похищает дочь губернатора Элизабет. Ведь именно она владеет таинственным золотым медальоном, способным разрушить проклятие, из-за которого Барбосса и его корсары обратились в живых мертвецов. Чтобы спасти Элизабет, влюбленный в нее молодой кузнец Уилл Тернер объединяет свои силы с эксцентричным пиратом Джеком Воробьем и отправляется в погоню за "Черной жемчужиной".
Качество: BDRip
Формат: AVI
Аудио кодек: АС3
Видео кодек: XviD
Видео: 720x304 (2.37:1), 23.976 fps, XviD build 64, 2129 kbps avg, 0.41 bit/pixel
Аудио: 48 kHz, AC3 Dolby Digital, 3/2 (L,C,R,l,r) + LFE ch, ~384 kbps|DUB|
Аудио 2: 48 kHz, AC3 Dolby Digital, 3/2 (L,C,R,l,r) + LFE ch, ~384 kbps|ENG|
Полное имя : P.K.M.Prokljatie.Chernoj.zhemchuzhiny.2003.DUAL.BDRip.avi
Формат : AVI
Формат/Информация : Audio Video Interleave
Размер файла : 2,90 Гбайт
Продолжительность : 2 ч. 23 м.
Общий поток : 1105 Кбит/сек
Программа кодирования : VirtualDubMod 1.5.10.2 (build 2540/release)
Библиотека кодирования : VirtualDubMod build 2540/release
Видео
Идентификатор : 0
Формат : MPEG-4 Visual
Профиль формата : Advanced [email protected]
Параметр BVOP формата : 1
Параметр QPel формата : Нет
Параметр GMC формата : Без точки перехода
Параметр матрицы формата : Default (H.263)
Идентификатор кодека : XVID
Идентификатор кодека/Подсказка : XviD
Продолжительность : 2 ч. 23 м.
Битрейт : 968 Кбит/сек
Ширина : 720 пикселей
Высота : 304 пикселя
Соотношение сторон : 2,40:1
Частота кадров : 23,976 кадра/сек
Цветовое пространство : YUV
Субдискретизация насыщенности : 4:2:0
Битовая глубина : 8 бит
Тип развёртки : Прогрессивная
Метод сжатия : С потерями
Бит/(Пиксели*Кадры) : 0.239
Размер потока : 991 Мбайт (88%)
Библиотека кодирования : XviD 1.2.0.dev47 (UTC 2006-11-01)
Аудио
Идентификатор : 1
Формат : MPEG Audio
Версия формата : Version 1
Профиль формата : Layer 3
Идентификатор кодека : 55
Идентификатор кодека/Подсказка : MP3
Продолжительность : 2 ч. 23 м.
Вид битрейта : Постоянный
Битрейт : 128 Кбит/сек
Каналы : 2 канала
Частота : 48,0 КГц
Метод сжатия : С потерями
Размер потока : 131 Мбайт (12%)
Выравнивание : Соединение по промежуткам
Продолжительность промежутка : 42 мс. (1,00 видеокадр)
Время предзагрузки промежутка : 504 мс.
Библиотека кодирования : LAME3.97
Настройки программы : -m s -V 4 -q 2 -lowpass 17 -b 128
Пираты Карибского моря 2: Сундук мертвеца / Pirates of the Caribbean: Dead man's chest
Год выпуска: 2006
Производство: США
Жанр: Фэнтези, Боевик, Приключения
Перевод: Профессиональный (полное дублирование)
Режиссер: Гор Вербински / Gore Verbinski
В ролях: Джонни Депп, Орландо Блум, Кира Найтли, Джек Девенпорт, Билл Найи, Джонатан Прайс, Ли Аренберг, Маккензи Крук, Кевин МакНэлли, Дэвид Бэйли
Описание: Вновь оказавшись в ирреальном мире, лихой капитан Джек Воробей неожиданно узнает, что является должником легендарного капитана «Летучего Голландца» Дэйви Джонса. Джек должен в кратчайшие сроки решить эту проблему, иначе ему грозит вечное проклятие и рабское существование после смерти. Вдобавок ко всему, срывается свадьба Уилла Тернера и Элизабет Суонн, которые вынуждены составить Джеку компанию в его злоключениях…
Качество: BDRip
Формат: AVI
Аудио кодек: АС3
Видео кодек: XviD
Видео: 720x304 (2.37:1), 23.976 fps, XviD build 64, 2129 kbps avg, 0.41 bit/pixel
Аудио: 48 kHz, AC3 Dolby Digital, 3/2 (L,C,R,l,r) + LFE ch, ~384 kbps|DUB|
Полное имя : Piraty.Karibskogo.morja.Sunduk.mertveca.2006.RUS.BDRip.avi
Формат : AVI
Формат/Информация : Audio Video Interleave
Размер файла : 2,90 Гбайт
Продолжительность : 2 ч. 23 м.
Общий поток : 1105 Кбит/сек
Программа кодирования : VirtualDubMod 1.5.10.2 (build 2540/release)
Библиотека кодирования : VirtualDubMod build 2540/release
Видео
Идентификатор : 0
Формат : MPEG-4 Visual
Профиль формата : Advanced [email protected]
Параметр BVOP формата : 1
Параметр QPel формата : Нет
Параметр GMC формата : Без точки перехода
Параметр матрицы формата : Default (H.263)
Идентификатор кодека : XVID
Идентификатор кодека/Подсказка : XviD
Продолжительность : 2 ч. 23 м.
Битрейт : 968 Кбит/сек
Ширина : 720 пикселей
Высота : 304 пикселя
Соотношение сторон : 2,40:1
Частота кадров : 23,976 кадра/сек
Цветовое пространство : YUV
Субдискретизация насыщенности : 4:2:0
Битовая глубина : 8 бит
Тип развёртки : Прогрессивная
Метод сжатия : С потерями
Бит/(Пиксели*Кадры) : 0.239
Размер потока : 991 Мбайт (88%)
Библиотека кодирования : XviD 1.2.0.dev47 (UTC 2006-11-01)
Аудио
Идентификатор : 1
Формат : MPEG Audio
Версия формата : Version 1
Профиль формата : Layer 3
Идентификатор кодека : 55
Идентификатор кодека/Подсказка : MP3
Продолжительность : 2 ч. 23 м.
Вид битрейта : Постоянный
Битрейт : 128 Кбит/сек
Каналы : 2 канала
Частота : 48,0 КГц
Метод сжатия : С потерями
Размер потока : 131 Мбайт (12%)
Выравнивание : Соединение по промежуткам
Продолжительность промежутка : 42 мс. (1,00 видеокадр)
Время предзагрузки промежутка : 504 мс.
Библиотека кодирования : LAME3.97
Настройки программы : -m s -V 4 -q 2 -lowpass 17 -b 128
Пираты Карибского моря 3: На краю Света / Pirates of the Caribbean: At world's end
Год выпуска: 2007
Производство: США
Жанр: Фэнтези, Боевик, Приключения
Перевод: Профессиональный (полное дублирование)
Режиссер: Гор Вербински / Gore Verbinski
В ролях: Джонни Депп, Орландо Блум, Кира Найтли, Джеффри Раш, Джек Девенпорт, Билл Найи, Джонатан Прайс, Ли Аренберг, Маккензи Крук, Кевин МакНэлли
Описание: Наступают темные времена: век пиратов близится к завершению. Лорд Катлер Беккет из Ост-Индской компании заполучил контроль над навевающим ужас кораблем-призраком, Летучим Голландцем, и его злобным, мстительным капитаном, Дэйви Джоунсом. Теперь Летучий Голландец неустанно бороздит воды семи морей и, под командой адмирала Норрингтона, безжалостно уничтожает пиратские корабли. Уилл Тернер, Элизабет Суон и капитан Барбосса пускаются в отчаянное путешествие в поисках Девяти Баронов Пиратского Братства: с ними связана единственная надежда победить Беккета, Летучего Голландца и его армаду. Но один из Баронов пропал: капитан Джек Воробей, то ли лучший, то ли худший пират на свете. После неудачной встречи с чудовищем по имени Кракен он находится в плену у Дэйви Джоунса. Союз между нашими героями — включая Тию Дальму, Пинтела и Раджетти — непрочен, однако они должны сперва отправиться в опасный, экзотический Сингапур и биться с китайским пиратским капитаном Сяо Феном за мореходные карты и за корабль, который, ради спасения Джека, доставит их на край света.
Качество: BDRip
Формат: AVI
Аудио кодек: АС3
Видео кодек: XviD
Видео: 720x304 (2.37:1), 23.976 fps, XviD build 64, 2129 kbps avg, 0.40 bit/pixel
Аудио: 48 kHz, AC3 Dolby Digital, 3/2 (L,C,R,l,r) + LFE ch, ~384 kbps|DUB|
Полное имя : Piraty.Karibskogo.morja.Na.kraju.Sveta.2007.RUS.BDRip.avi
Формат : AVI
Формат/Информация : Audio Video Interleave
Размер файла : 2,90 Гбайт
Продолжительность : 2 ч. 23 м.
Общий поток : 1105 Кбит/сек
Программа кодирования : VirtualDubMod 1.5.10.2 (build 2540/release)
Библиотека кодирования : VirtualDubMod build 2540/release
Видео
Идентификатор : 0
Формат : MPEG-4 Visual
Профиль формата : Advanced [email protected]
Параметр BVOP формата : 1
Параметр QPel формата : Нет
Параметр GMC формата : Без точки перехода
Параметр матрицы формата : Default (H.263)
Идентификатор кодека : XVID
Идентификатор кодека/Подсказка : XviD
Продолжительность : 2 ч. 23 м.
Битрейт : 968 Кбит/сек
Ширина : 720 пикселей
Высота : 304 пикселя
Соотношение сторон : 2,40:1
Частота кадров : 23,976 кадра/сек
Цветовое пространство : YUV
Субдискретизация насыщенности : 4:2:0
Битовая глубина : 8 бит
Тип развёртки : Прогрессивная
Метод сжатия : С потерями
Бит/(Пиксели*Кадры) : 0.239
Размер потока : 991 Мбайт (88%)
Библиотека кодирования : XviD 1.2.0.dev47 (UTC 2006-11-01)
Аудио
Идентификатор : 1
Формат : MPEG Audio
Версия формата : Version 1
Профиль формата : Layer 3
Идентификатор кодека : 55[img][/img]
Идентификатор кодека/Подсказка : MP3
Продолжительность : 2 ч. 23 м.
Вид битрейта : Постоянный
Битрейт : 128 Кбит/сек
Каналы : 2 канала
Частота : 48,0 КГц
Метод сжатия : С потерями
Размер потока : 131 Мбайт (12%)
Выравнивание : Соединение по промежуткам
Продолжительность промежутка : 42 мс. (1,00 видеокадр)
Время предзагрузки промежутка : 504 мс.
Библиотека кодирования : LAME3.97
Настройки программы : -m s -V 4 -q 2 -lowpass 17 -b 128
Пираты Карибского моря 4. На странных берегах / Pirates of the Caribbean: On Stranger Tides
Год выпуска: 2011
Производство: США
Жанр: Фэнтези, Боевик, Приключения
Перевод: Профессиональный (полное дублирование)
Режиссер: Роб Маршалл / Rob Marshall
В ролях: Джонни Депп, Пенелопа Крус, Джеффри Раш, Иэн МакШейн, Кевин МакНэлли, Стивен Грэм, Сэм Клафлин, Астрид Берже-Фрисби, Кит Ричардс, Ричард Гриффитс
Описание: В новой истории о поисках истины, предательстве, вечной молодости и смертельной опасности капитану Джеку Воробью предстоит столкнуться с женщиной из своего прошлого Анжеликой. До самого конца не будет понятно, связывает ли их настоящая любовь, или же Анжелика искусно притворяется, чтобы вместе с Джеком добраться до таинственного источника вечной молодости. Она силой принуждает капитана Джека Воробья взойти на корабль «Месть Королевы Анны», которым управляет коварный злодей Черная Борода. Наш герой оказывается в ситуации, когда он не знает, чего ему бояться больше — ужасного злодея или же свою давнюю подругу.
Качество: BDRip
Формат: AVI
Аудио кодек: АС3
Видео кодек: XviD
Видео: 720x304 (2.37:1), 23.976 fps, XviD build 64, 2129 kbps avg, 0.41 bit/pixel
Аудио: 48 kHz, AC3 Dolby Digital, 3/2 (L,C,R,l,r) + LFE ch, ~384 kbps|DUB|
Аудио 2: 48 kHz, AC3 Dolby Digital, 3/2 (L,C,R,l,r) + LFE ch, ~384 kbps|ENG|
Полное имя : Piraty.Karibskogo.morja.Na.strannyh.beregah.2011.DUAL.BDRip.avi
Формат : AVI
Формат/Информация : Audio Video Interleave
Размер файла : 2,90 Гбайт
Продолжительность : 2 ч. 27 м.
Общий поток : 1105 Кбит/сек
Программа кодирования : VirtualDubMod 1.5.10.2 (build 2540/release)
Библиотека кодирования : VirtualDubMod build 2540/release
Видео
Идентификатор : 0
Формат : MPEG-4 Visual
Профиль формата : Advanced [email protected]
Параметр BVOP формата : 1
Параметр QPel формата : Нет
Параметр GMC формата : Без точки перехода
Параметр матрицы формата : Default (H.263)
Идентификатор кодека : XVID
Идентификатор кодека/Подсказка : XviD
Продолжительность : 2 ч. 23 м.
Битрейт : 968 Кбит/сек
Ширина : 720 пикселей
Высота : 304 пикселя
Соотношение сторон : 2,40:1
Частота кадров : 23,976 кадра/сек
Цветовое пространство : YUV
Субдискретизация насыщенности : 4:2:0
Битовая глубина : 8 бит
Тип развёртки : Прогрессивная
Метод сжатия : С потерями
Бит/(Пиксели*Кадры) : 0.239
Размер потока : 991 Мбайт (88%)
Библиотека кодирования : XviD 1.2.0.dev47 (UTC 2006-11-01)
Аудио
Идентификатор : 1
Формат : MPEG Audio
Версия формата : Version 1
Профиль формата : Layer 3
Идентификатор кодека : 55
Идентификатор кодека/Подсказка : MP3
Продолжительность : 2 ч. 23 м.
Вид битрейта : Постоянный
Битрейт : 128 Кбит/сек
Каналы : 2 канала
Частота : 48,0 КГц
Метод сжатия : С потерями
Размер потока : 131 Мбайт (12%)
Выравнивание : Соединение по промежуткам
Продолжительность промежутка : 42 мс. (1,00 видеокадр)
Время предзагрузки промежутка : 504 мс.
Библиотека кодирования : LAME3.97
Настройки программы : -m s -V 4 -q 2 -lowpass 17 -b 128
Download / Скачать

Хотите скачать бесплатно? Зарегистрируйтесь на сайте (ссылка на регистрацию). Pirat.ca - самый быстрый торрент трекер в рунете!

Как скачивать  ·   Что такое торрент  ·   Рейтинг и ограничения



Последний раз редактировалось: Skay9 (2011-12-18 15:15), всего редактировалось 15 раз(а)

Пост 18-Дек-2011 15:18 (спустя 2 часа 30 минут)

Топик был перенесен из форума Художественные фильмы (Зарубежное кино) в форум Зарубежное Кино

Skinwalker
 

Evgeniy3102

Корсар

3

Пост 19-Дек-2011 13:52 (спустя 1 день 1 час)

[Q] 

Раздавать кто-то думает ? Или это разводняк !?
[Профиль]  [ЛС] 

Skay9 ®

Шкипер

1636

Пост 19-Дек-2011 13:58 (спустя 6 минут)

[Q] 

Сам ты разводняк
[Профиль]  [ЛС] 

ГИППАРРД

Морской Волк

2

Пост 26-Дек-2011 23:58 (спустя 7 дней)

[Q] 

Всем привет очень рад что: появилась возможность у вас скачать пиратов карибского моря, и так сейчас обесню какая должна быть скорость при скачивании всех частей фильма пираты карибского моря и так логическая скорость как и логические диски Primari and Logike в совокупности скорость при скачивании фильмов должна быть такой если уж на то пошло чьл вы решили скачать все части фильма пираты карибского моря да и ещё в формате DVD-5, DVD-9 +Встроенное меню+список+дополнения и всё это дело должно смотреться именно так а не иначе: 9880кб\с\9799кб\с\10099 кб.с\ 9921кбс. Ну надеюсь сейчас процесс пойдёт в гору да-в прямом смысле.Не торопимся прибавляем скорость на полную.
[Профиль]  [ЛС] 

Skay9 ®

Шкипер

1636

Пост 03-Янв-2012 18:06 (спустя 7 дней)

[Q] 

ГИППАРРД,
Слышишь, спамер, бери и заливай
[Профиль]  [ЛС] 

goxakrauter

4540

Пост 03-Янв-2012 18:31 (спустя 25 минут)

[Q] 

ГИППАРРД, *facepalm*
Skay9, поддержу раздачу...
[Профиль]  [ЛС] 

Gvozdochet

Корсар

Пост 06-Апр-2012 02:16 (спустя 3 месяца 2 дня)

[Q] 

[Профиль]  [ЛС] 

Nikolight

Лоцман

Пост 19-Окт-2012 14:49 (спустя 6 месяцев 13 дней)

[Q] 

anime51
[Профиль]  [ЛС] 

Makasin09

Шкипер

Пост 28-Ноя-2012 22:29 (спустя 1 месяц 9 дней)

[Q] 

[Профиль]  [ЛС] 

assistentka

Морской Волк

10

Пост 15-Мар-2013 10:42 (спустя 3 месяца 16 дней)

[Q] 


_________________
[Профиль]  [ЛС] 

samata

Морской Волк

210

Пост 22-Апр-2013 18:27 (спустя 1 месяц 7 дней)

[Q] 


_________________
[Профиль]  [ЛС] 

Fettel

Морской Волк

Пост 29-Апр-2013 17:58 (спустя 6 дней)

[Q] 

[Профиль]  [ЛС] 

prokf

Лоцман

Пост 06-Май-2013 16:17 (спустя 6 дней)

[Q] 

суперрр
[Профиль]  [ЛС] 

vodoleii

Шкипер

Пост 25-Май-2013 19:12 (спустя 19 дней)

[Q] 

Классные фильмы!!!
[Профиль]  [ЛС] 

Kaelis

Морской Волк

Пост 25-Авг-2013 18:03 (спустя 2 месяца 30 дней)

[Q] 

спасибо
[Профиль]  [ЛС] 

dronofill

Корсар

Пост 07-Янв-2014 23:50 (спустя 4 месяца 13 дней)

[Q] 

скорости бы!!

_________________
Мира и добра)
[Профиль]  [ЛС] 

alex denver71

Флибустьер

Пост 18-Ноя-2014 21:38 (спустя 10 месяцев 10 дней)

[Q] 

Автору респект!!! Про фильм: Мне понравилось
[Профиль]  [ЛС] 

xzxscorpxzx

Флибустьер

Пост 14-Сен-2015 05:56 (спустя 9 месяцев 25 дней)

[Q] 

круто! Спасибо!!! !COOL!
[Профиль]  [ЛС] 

Dead Mazay

Пост 14-Авг-2016 00:55 (спустя 10 месяцев 29 дней)

[Q] 

Зачет!
[Профиль]  [ЛС] 
Показать сообщения:    
Ответить на тему

Текущее время: Сегодня 00:36

Часовой пояс: GMT + 4



Вы не можете начинать темы
Вы не можете отвечать на сообщения
Вы не можете редактировать свои сообщения
Вы не можете удалять свои сообщения
Вы не можете голосовать в опросах
Вы не можете прикреплять файлы к сообщениям
Вы не можете скачивать файлы

▼ Вниз