ML
     
  Уважаемый Гость!
Вы можете поддержать проект и зарегистрироваться у наших партнеров - онлайн-стратегия MyLands. При регистрации в игре Вы получите код, который сможете активировать после регистрации на pirat.ca и получить 1000 дублонов.

Ваш код:
f612af22ea70acf5cbe90707ac5a076d215f8f7f
 
     

Короткое замыкание: 1-2 (Дилогия) / Short Circuit: 1-2 (Dilogy) (Джон Бэдхем / John Badham, Кеннет Джонсон / Kenneth Johnson) [1986, 1988 гг., Фантастика, комедия, семейный, DVDRip] Dub

Ответить на тему
 
Автор
Сообщение

Пост 09-Фев-2013 20:09

[Q] 

Jigsaw

 
-
Короткое замыкание: 1-2 (Дилогия)
Короткое замыкание
Short Circuit
«Номер пять жив!»
-- Производство: США
Год выпуска: 1986 г.
Жанр: Фантастика
Продолжительность: 01:38:34
Дата выхода DVD: 10 марта 2011, «New Dream media»
Перевод: Профессиональный (полное дублирование) (Советский дубляж)
Режиссер: Джон Бэдхем / John Badham-В ролях: Стив Гуттенберг, Элли Шиди, Фишер Стивенс, Дж. У. Бейли, Остин Пендлтон-Описание: Из военной лаборатории из-за поломки, вызванной ударом молнии, сбегает новейший прототип робота-солдата «Номер 5». Руководство компании-разработчика в ужасе — ведь сломавшийся робот имеет лазерную пушку и стреляет из неё предельно точно. За ним высылают погоню. Но оказавшись на свободе, среди цветов и бабочек, робот-разрушитель вдруг получает такой заряд любви, доброты и гуманизма, что больше не помышляет об убийствах. Робота подбирает девушка Стэфани Спек, поначалу принявшая «Номера 5» за инопланетянина.- -Качество видео: DVDRip
Контейнер: AVI
Видео кодек: XviD
Аудио кодек: AC3
Видео: MPEG4, XviD, 720x304 (2.35:1), 23.976 fps, 1 724 Kbps (0.328 bit/pixel)
Аудио: Rus: AC-3, 48.0 KHz, 2 ch, 192 Kbps, CBR (советский дубляж)
Аудио #2: Eng: AC-3, 48.0 KHz, 2 ch, 192 Kbps, CBR (оригинал)
Cубтитры: отсутствуют
Общее
Полное имя : D:\Korotkoe_zamykanie_DVDRip.[рirat.ca].avi
Формат : AVI
Формат/Информация : Audio Video Interleave
Размер файла : 1,46 Гбайт
Продолжительность : 1 ч. 38 м.
Общий поток : 2122 Кбит/сек
Название фильма : Короткое замыкание / Short Circuit (1986)
Программа кодирования : VirtualDubModRus 1.5.10.2 (build 2540/release)
Правообладатель : Pirat.ca (R.G.All Films)
Видео
Идентификатор : 0
Формат : MPEG-4 Visual
Профиль формата : Advanced [email protected]
Параметр BVOP формата : 1
Параметр QPel формата : Нет
Параметр GMC формата : Без точки перехода
Параметр матрицы формата : Default (MPEG)
Идентификатор кодека : XVID
Идентификатор кодека/Подсказка : XviD
Продолжительность : 1 ч. 38 м.
Битрейт : 1724 Кбит/сек
Ширина : 720 пикселей
Высота : 304 пикселя
Соотношение сторон : 2,40:1
Соотношение сторон в оригинале : 2,35:1
Частота кадров : 23,976 кадра/сек
Цветовое пространство : YUV
Субдискретизация насыщенности : 4:2:0
Битовая глубина : 8 бит
Тип развёртки : Прогрессивная
Метод сжатия : С потерями
Бит/(Пиксели*Кадры) : 0.328
Размер потока : 1,19 Гбайт (81%)
Библиотека кодирования : XviD 1.1.2 (UTC 2006-11-01)
Аудио #1
Идентификатор : 1
Формат : AC-3
Формат/Информация : Audio Coding 3
Расширение режима : CM (complete main)
Параметр Endianness формата : Big
Идентификатор кодека : 2000
Продолжительность : 1 ч. 38 м.
Вид битрейта : Постоянный
Битрейт : 192 Кбит/сек
Каналы : 2 канала
Расположение каналов : Front: L R
Частота : 48,0 КГц
Битовая глубина : 16 бит
Метод сжатия : С потерями
Размер потока : 135 Мбайт (9%)
Выравнивание : Разделение по промежуткам
Продолжительность промежутка : 42 мс. (1,00 видеокадр)
Время предзагрузки промежутка : 500 мс.
Аудио #2
Идентификатор : 2
Формат : AC-3
Формат/Информация : Audio Coding 3
Расширение режима : CM (complete main)
Параметр Endianness формата : Big
Идентификатор кодека : 2000
Продолжительность : 1 ч. 38 м.
Вид битрейта : Постоянный
Битрейт : 192 Кбит/сек
Каналы : 2 канала
Расположение каналов : Front: L R
Частота : 48,0 КГц
Битовая глубина : 16 бит
Метод сжатия : С потерями
Размер потока : 135 Мбайт (9%)
Выравнивание : Разделение по промежуткам
Продолжительность промежутка : 42 мс. (1,00 видеокадр)
Время предзагрузки промежутка : 500 мс.
Фильм дублирован на киностудии "Ленфильм" в 1987 году.
Режиссер дубляжа: Н. Кошелев
Звукооператор: Э. Казанская
Автор литературного перевода: Д. Ордовский
Редактор: О. Евлашева
Роли дублировали: Сергей Бехтерев (Ньютон Кросби), Светлана Гайтан (Стэфани Спек), Владимир Осипчук, Сергей Власов, Николай Лавров, Геннадий Богачев, Валерий Захарьев.
----Короткое замыкание 2
Short Circuit 2
«Some say he's nuts. Some say he's bolts. But can Number Five make it in the big, bad city? Keep your wires crossed.»
-- Производство: США, TriStar Pictures
Год выпуска: 1988 г.
Жанр: Фантастика, комедия, семейный
Продолжительность: 01:50:25
Перевод: Профессиональный (полное дублирование) (Варус Видео)
Режиссер: Кеннет Джонсон / Kenneth Johnson-В ролях: Тим Блэйни, Фишер Стивенс, Майкл МакКин, Синтия Гибб, Джек Уэстон, Ди МакКафферти, Дэвид Хемблен, Дон Лейк, Дэймон Д'Оливера, Тито Нуньес-Описание: Бен Джарви, по происхождению индиец, а по профессии — изобретатель-конструктор роботов, вынужден работать уличным торговцем. В первом фильме его отстранили от работы после инцидента с созданным им роботом Номер пять. Теперь Бен оказался на мели, он вынужден жить в фургончике и делать игрушечных роботов для продажи на улице. Эти роботы все, как один, похожи на Номера пять, но только дизайном….. Номер пять обрел личность благодаря короткому замыканию, а эти малыши — всего лишь бездушные игрушки. Маленькие роботы привлекают внимание сотрудницы известного магазина игрушек и она делает Бену выгодное предложение — к Рождеству он должен собрать тысячу таких роботов и продать магазину оптом. Предприимчивый американец советует Бену принять выгодное предложение и обещает помочь ему в выполнении заказа. Бен заключает сделку. Вместе со своим компаньоном он арендует рабочий цех и привлекает помощников. Приезжает и Номер пять, чтобы помочь своему создателю и другу Бену. Бен выбирает неудачное место для работы: этажом ниже находится целая банда преступников. Это грабители банков, они роют подземный ход в хранилище, где содержится коллекция бриллиантов. Появление Бена и его помощников может сорвать подготовку к ограблению, поэтому грабители принимают решение избавиться от нежелательных соседей…- -Качество видео: DVDRip
Контейнер: AVI
Видео кодек: XviD
Аудио кодек: AC3
Видео: MPEG4, XviD, 720x384 (1.875), 23.976 fps, 1 575 Kbps (0.238 bit/pixel)
Аудио: Rus: AC-3, 48.0 KHz, 2 ch, 192 Kbps, CBR (дубляж - Варус Видео)
Cубтитры: отсутствуют
Общее
Полное имя : D:\Korotkoe_Zamykanie.2_DVDRip.[рirat.ca].avi
Формат : AVI
Формат/Информация : Audio Video Interleave
Размер файла : 1,37 Гбайт
Продолжительность : 1 ч. 50 м.
Общий поток : 1776 Кбит/сек
Название фильма : Korotkoe_Zamykanie.2_DVDRip.[рirat.ca]
Программа кодирования : VirtualDubMod 1.5.10.2 (build 2540/release)
Правообладатель : Рirat.ca (R.G. All Films)
Видео
Идентификатор : 0
Формат : MPEG-4 Visual
Профиль формата : Advanced [email protected]
Параметр BVOP формата : 2
Параметр QPel формата : Нет
Параметр GMC формата : Без точки перехода
Параметр матрицы формата : Default (MPEG)
Идентификатор кодека : XVID
Идентификатор кодека/Подсказка : XviD
Продолжительность : 1 ч. 50 м.
Битрейт : 1575 Кбит/сек
Ширина : 720 пикселей
Высота : 384 пикселя
Соотношение сторон : 1,85:1
Частота кадров : 23,976 кадра/сек
Цветовое пространство : YUV
Субдискретизация насыщенности : 4:2:0
Битовая глубина : 8 бит
Тип развёртки : Прогрессивная
Метод сжатия : С потерями
Бит/(Пиксели*Кадры) : 0.238
Размер потока : 1,21 Гбайт (89%)
Библиотека кодирования : XviD 1.2.0.dev47 (UTC 2006-11-01)
Аудио
Идентификатор : 1
Формат : AC-3
Формат/Информация : Audio Coding 3
Расширение режима : CM (complete main)
Параметр Endianness формата : Big
Идентификатор кодека : 2000
Продолжительность : 1 ч. 50 м.
Вид битрейта : Постоянный
Битрейт : 192 Кбит/сек
Каналы : 2 канала
Расположение каналов : Front: L R
Частота : 48,0 КГц
Битовая глубина : 16 бит
Метод сжатия : С потерями
Размер потока : 152 Мбайт (11%)
Выравнивание : Разделение по промежуткам
Продолжительность промежутка : 42 мс. (1,00 видеокадр)
Время предзагрузки промежутка : 500 мс.
*Некоторые элементы сюжета позаимствованы из рассказа Айзека Азимова «Robot AL-76 Goes Astray» («Робот ЭЛ-76 попадает не туда», 1941).
*Во время съёмок «Джонни 5» управлялся с пульта дистанционного управления. Управляющие роботом техники разговаривали за робота в кадре, чтобы актёрам было легче представить одушевлённого робота.
*Робот не мог двигаться достаточно быстро, поэтому плёнку с его действиями при монтаже приходилось воспроизводить с ускорением.
*Робот «Джонни 5» был самой высокорасходной статьёй бюджета фильма. Остальные затраты были не так велики.
*Когда Стефани даёт экспресс-интервью, в роли оператора можно увидеть режиссёра фильма Джона Бэдэма (т. н. камео).
*Во время заключительных титров можно увидеть сцены, не попавшие в фильм. А на DVD позже вышли и другие вырезанные сцены, сопровождаемые комментариями режиссёра.
*Самой известной фразой из фильма стала фраза: «Жизнь — это не неисправность» (англ. «Life is not a malfunction»).
*По мотивам фильма была создана видеоигра.
-
Download / Скачать

Хотите скачать бесплатно? Зарегистрируйтесь на сайте (ссылка на регистрацию). Pirat.ca - самый быстрый торрент трекер в рунете!

Как скачивать  ·   Что такое торрент  ·   Рейтинг и ограничения

Wolf111

57134

Пост 09-Фев-2013 20:19 (спустя 9 минут)

[Q] 

Классный фильм, всем советую посмотреть кто не смотрел ещё, а кто уже видел то понастольгировать az
[Профиль]  [ЛС] 

Jigsaw ®

Пост 09-Фев-2013 20:26 (спустя 6 минут)

[Q] 

Фильм действительно суперский! Как по мне, так первая часть, как обычно лучше. bk
Wolf111,
 

Пост 09-Фев-2013 20:52 (спустя 26 минут)

Топик был перенесен из форума Зарубежное Кино (Трюм) в форум Зарубежное Кино

ara1205
 

krendel1973

Флибустьер

Пост 09-Фев-2013 21:17 (спустя 51 минута)

[Q] 

[Профиль]  [ЛС] 

MEHANOID

Корсар

Пост 09-Фев-2013 23:25 (спустя 2 часа 7 минут)

[Q] 

первая часть действительно интересней ---НАСТОЛЬГИЯ
[Профиль]  [ЛС] 

Fettel

Морской Волк

Пост 29-Апр-2013 18:01 (спустя 2 месяца 19 дней)

[Q] 

[Профиль]  [ЛС] 

tddk

Юнга

Пост 07-Июл-2013 19:23 (спустя 2 месяца 8 дней)

[Q] 

Спасибо за раздачу! Когда-то много раз смотрел в кинотеатре.Ностальгия,наверное...А фильм действительно
интересный.
[Профиль]  [ЛС] 

wert8901

Юнга

Пост 12-Апр-2014 18:22 (спустя 9 месяцев 4 дня)

[Q] 

Я этот фильм в кинотеатре 7 раз смотрел еще в детстве!!!:)
[Профиль]  [ЛС] 
Показать сообщения:    
Ответить на тему

Текущее время: Сегодня 00:28

Часовой пояс: GMT + 4



Вы не можете начинать темы
Вы не можете отвечать на сообщения
Вы не можете редактировать свои сообщения
Вы не можете удалять свои сообщения
Вы не можете голосовать в опросах
Вы не можете прикреплять файлы к сообщениям
Вы не можете скачивать файлы

▼ Вниз