ML
     
  Уважаемый Гость!
Вы можете поддержать проект и зарегистрироваться у наших партнеров - онлайн-стратегия MyLands. При регистрации в игре Вы получите код, который сможете активировать после регистрации на pirat.ca и получить 1000 дублонов.

Ваш код:
ba41f7961e0b4717aed6a401d955262223b8f6c4
 
     

Фантастическая четверка - Дилогия / Fantastic Four - Dilogy (Тим Стори / Tim Story) [2005, 2007 гг., фантастика, боевик, BDRip]

Ответить на тему
 
Автор
Сообщение

Пост 24-Дек-2011 23:25

[Q] 

Kaper

Фантастическая четверка / Fantastic Four«Подготовся к неизведанному...»-
Год выпуска: 2005
Страна: США, Германия
Жанр: фантастика, боевик
Продолжительность: 01:45:29
Перевод: Профессиональный (дублированный)-Режиссер:
Тим Стори / Tim Story
-В ролях:
Йоан Гриффит
Джессика Альба
Крис Эванс
Майкл Чиклис
Джулиан МакМэхон
Хамиш Линклэйтер
Керри Вашингтон
Лори Холден
Дэвид Паркер
Кевин МакНалти ...
-Описание:
Четыре астронавта в далеком космосе попали под действие неизвестных лучей и приобрели каждый свою отдельную суперспособность. После возвращения на Землю четверка начинает активно мешать врагам цивилизации, которые усиленно портят жизнь всего прогрессивного человечества.
- -Бюджет: $100 000 000
Сборы в США: $154 696 080
Сборы в мире: + $175 424 795 = $330 120 875
Сборы в России: $2 189 133
Премьера (мир): 29 июня 2005
Премьера (РФ): 14 июля 2005
Релиз на Blu-Ray: 25 марта 2010-Качество: BDRip
Формат: AVI
Видео: 720x304 (2.35:1), 23.976 fps, XviD, 2 502 Kbps
Аудио: Аудио #1: AC3, 448 Kbps, 48.0 KHz, 6 ch
Код:
General
Complete name                    : Fantasticheskaya chetverka. BDRip.avi
Format                           : AVI
Format/Info                      : Audio Video Interleave
Format profile                   : OpenDML
File size                        : 2.18 GiB
Duration                         : 1h 45mn
Overall bit rate                 : 2 962 Kbps
Writing application              : VirtualDubModRus 1.5.10.2 (build 2542/release)
Writing library                  : VirtualDubMod build 2542/release
Video
ID                               : 0
Format                           : MPEG-4 Visual
Format profile                   : Advanced [email protected]
Format settings, BVOP            : 1
Format settings, QPel            : No
Format settings, GMC             : No warppoints
Format settings, Matrix          : Custom
Muxing mode                      : Packed bitstream
Codec ID                         : XVID
Codec ID/Hint                    : XviD
Duration                         : 1h 45mn
Bit rate                         : 2 502 Kbps
Width                            : 720 pixels
Height                           : 304 pixels
Display aspect ratio             : 2.35:1
Frame rate                       : 23.976 fps
Color space                      : YUV
Chroma subsampling               : 4:2:0
Bit depth                        : 8 bits
Scan type                        : Progressive
Compression mode                 : Lossy
Bits/(Pixel*Frame)               : 0.477
Stream size                      : 1.84 GiB (84%)
Writing library                  : XviD 1.2.1 (UTC 2008-12-04)
Audio
ID                               : 1
Format                           : AC-3
Format/Info                      : Audio Coding 3
Mode extension                   : CM (complete main)
Codec ID                         : 2000
Duration                         : 1h 45mn
Bit rate mode                    : Constant
Bit rate                         : 448 Kbps
Channel(s)                       : 6 channels
Channel positions                : Front: L C R, Side: L R, LFE
Sampling rate                    : 48.0 KHz
Bit depth                        : 16 bits
Compression mode                 : Lossy
Stream size                      : 338 MiB (15%)
Alignment                        : Split accross interleaves
Interleave, duration             : 42 ms (1.00 video frame)
Interleave, preload duration     : 500 ms
-

» Данная картина отнюдь не первая экранизация «Великолепной четверки». Предыдущая была осуществлена в 1994 году, однако до сих пор не была выпущена в прокат и, скорее всего, этого не произойдет никогда. Единственной причиной создания данной версии были условия получения авторских прав. Если бы проект не был бы запущен в определенное время, студия навсегда потеряла бы права на экранизацию.
» На режиссерское кресло в равной мере претендовали Крис Коламбус, Пейтон Рид, Стивен Содерберг и Шон Эстин.
» На роль Джонни Сторма пробовался Пол Уокер.
» На роль Сьюзен Сторм/Девушки-невидимки пробовались Джулия Стайлз, Кейт Босворт, Рэйчел МакАдамс, Элизабет Бэнкс и Кади Стрикленд. В конечном итоге роль заполучила Джессика Альба.
» На роль доктора Дума претендовал Тим Роббинс.
» Для того, чтобы получше вжиться в роль Существа, исполнитель роли, Майкл Чиклис читал своим детям сказки, надевая специальные зубные протезы.
» Для того, чтобы облачиться в костюм Существа, Майкл Чиклис тратил порядка трех часов.
» Несмотря на то, что Стэн Ли, основатель студии комиксов Marvel, эпизодически появлялся в картинах-экранизациях своих комиксов, впервые ему досталась полноценная роль. В картине ему довелось сыграть Вили Люмпкина, почтальона и просто хорошего приятеля «Великолепной Четверки».
» В картине есть около 900 сцен, в которых присутствуют визуальные эффекты.
» Полная версия фильма имеет хронометраж 125 минут.





Фантастическая четверка: Вторжение Серебряного серфера / 4: Rise of the Silver Surfer«Подъем!»-
Год выпуска: 2007
Страна: США, Германия, Великобритания
Жанр: фантастика, боевик
Продолжительность: 01:31:51
Перевод: Профессиональный (дублированный)-Режиссер:
Тим Стори / Tim Story
-В ролях:
Йоан Гриффит
Джессика Альба
Крис Эванс
Майкл Чиклис
Джулиан МакМэхон
Керри Вашингтон
Андре Брогер
Лоренс Фишбёрн
Даг Джонс
Бо Гарретт ...
-Описание:
Фантастическая четверка получает вызов со стороны великого и могучего Серебряного Серфера — таинственного межгалактического вестника, который прилетает на Землю, чтобы подготовить ее к полному разрушению. Пока Серебряный Серфер носится по всему земному шару, разрушая все на своём пути, Рид, Сью, Джонни и Бен должны разгадать его тайну и найти способ противостоять внезапному появлению их смертельного врага — доктора Дума.
- -Бюджет: $130 000 000
Сборы в США: $131 921 738
Сборы в мире: + $157 126 025 = $289 047 763
Сборы в России: $3 684 332
Премьера (мир): 12 июня 2007
Премьера (РФ): 14 июня 2007
Релиз на DVD: 8 июля 2010
Релиз на Blu-Ray: 25 марта 2010-Качество: BDRip
Формат: AVI
Видео: 720x304 (2.35:1), 23.976 fps, XviD, 1 805 Kbps
Аудио: Аудио #1: AC3, 448 Kbps, 48.0 KHz, 6 ch
Код:
General
Complete name                    : Fantasticheskaya chetverka II. BDRip.avi
Format                           : AVI
Format/Info                      : Audio Video Interleave
File size                        : 1.45 GiB
Duration                         : 1h 31mn
Overall bit rate                 : 2 262 Kbps
Writing application              : VirtualDubModRus 1.5.10.2 (build 2542/release)
Writing library                  : VirtualDubMod build 2542/release
Video
ID                               : 0
Format                           : MPEG-4 Visual
Format profile                   : Advanced [email protected]
Format settings, BVOP            : 1
Format settings, QPel            : No
Format settings, GMC             : No warppoints
Format settings, Matrix          : Custom
Muxing mode                      : Packed bitstream
Codec ID                         : XVID
Codec ID/Hint                    : XviD
Duration                         : 1h 31mn
Bit rate                         : 1 805 Kbps
Width                            : 720 pixels
Height                           : 304 pixels
Display aspect ratio             : 2.35:1
Frame rate                       : 23.976 fps
Color space                      : YUV
Chroma subsampling               : 4:2:0
Bit depth                        : 8 bits
Scan type                        : Progressive
Compression mode                 : Lossy
Bits/(Pixel*Frame)               : 0.344
Stream size                      : 1.16 GiB (80%)
Writing library                  : XviD 1.2.1 (UTC 2008-12-04)
Audio
ID                               : 1
Format                           : AC-3
Format/Info                      : Audio Coding 3
Mode extension                   : CM (complete main)
Codec ID                         : 2000
Duration                         : 1h 31mn
Bit rate mode                    : Constant
Bit rate                         : 448 Kbps
Channel(s)                       : 6 channels
Channel positions                : Front: L C R, Side: L R, LFE
Sampling rate                    : 48.0 KHz
Bit depth                        : 16 bits
Compression mode                 : Lossy
Stream size                      : 294 MiB (20%)
Alignment                        : Split accross interleaves
Interleave, duration             : 42 ms (1.00 video frame)
Interleave, preload duration     : 500 ms
-

» В комиксах Серебряный Серфер не берет силы из своей доски. Он умеет летать и без нее.
» На роль Сью Сторм пробовались такие актрисы, как Джулия Стайлз, Кейт Босворт, Рэйчел МакАдамс, Элизабет Бэнкс и Кэйди Стрикленд. В конечном итоге роль получила Джессика Альба.
» Виктора Фон Дума мог сыграть Тим Роббинс.
» Изначально бюджет фильма составлял 50 миллионов долларов. Но после того, как режиссер предоставил продюсерам снятую сцену на мосту и потребовал увеличения бюджета вдвое, продюсеры без споров выдали Тиму Стори нужную сумму.
» В первоначальном варианте сценария Доктор Дум должен был погибнуть в конце фильма, но продюсеры отвергли данный вариант.





Download / Скачать

Хотите скачать бесплатно? Зарегистрируйтесь на сайте (ссылка на регистрацию). Pirat.ca - самый быстрый торрент трекер в рунете!

Как скачивать  ·   Что такое торрент  ·   Рейтинг и ограничения

Пост 25-Дек-2011 00:13 (спустя 47 минут)

Топик был перенесен из форума Художественные фильмы (Зарубежное кино) в форум Зарубежное Кино

goxakrauter
 

bull271174

Флибустьер

Пост 04-Мар-2012 22:44 (спустя 2 месяца 10 дней)

[Q] 

Спасибо!Фильм хороший.
[Профиль]  [ЛС] 

Fettel

Морской Волк

Пост 29-Апр-2013 18:24 (спустя 1 год 1 месяц)

[Q] 

[Профиль]  [ЛС] 

ФедяКросс

Морской Волк

1

Пост 17-Май-2013 20:55 (спустя 18 дней)

[Q] 

Спасибо
[Профиль]  [ЛС] 

Прораб

Легенда

Пост 12-Янв-2014 20:24 (спустя 7 месяцев 25 дней)

[Q] 

Спасибо! Забираю в коллекцию.

_________________
Config comp: CPU-i7-2600K/RAM-32Gb/GF580GTX-1536Mb/RAID0(2 SSD-480GB)+RAID5(8 HDD-20Tb)/Win7 64bit.
[Профиль]  [ЛС] 

demsan

Шкипер

Пост 19-Янв-2014 16:23 (спустя 6 дней)

[Q] 

Спасибо, фильм что надо
[Профиль]  [ЛС] 

Farleyndia

Лоцман

Пост 26-Июн-2014 02:43 (спустя 5 месяцев 6 дней)

[Q] 

Спасибо. Без проблем
[Профиль]  [ЛС] 

xzxscorpxzx

Флибустьер

Пост 14-Сен-2015 06:50 (спустя 1 год 2 месяца)

[Q] 

....на любителя) На любителя
[Профиль]  [ЛС] 
Показать сообщения:    
Ответить на тему

Текущее время: Сегодня 14:49

Часовой пояс: GMT + 4



Вы не можете начинать темы
Вы не можете отвечать на сообщения
Вы не можете редактировать свои сообщения
Вы не можете удалять свои сообщения
Вы не можете голосовать в опросах
Вы не можете прикреплять файлы к сообщениям
Вы не можете скачивать файлы

▼ Вниз