ML
     
  Уважаемый Гость!
Вы можете поддержать проект и зарегистрироваться у наших партнеров - онлайн-стратегия MyLands. При регистрации в игре Вы получите код, который сможете активировать после регистрации на pirat.ca и получить 1000 дублонов.

Ваш код:
ba41f7961e0b4717aed6a401d955262223b8f6c4
 
     

Миссия: невыполнима - Трилогия / Mission: Impossible - Trilogy (Брайан Де Пальма / Brian De Palma, Джон Ву / John Woo, Джей Джей Абрамс / J.J. Abrams) (1996, 2000, 2006 гг., боевик, триллер, BDRip]

Ответить на тему
 
Автор
Сообщение

Пост 02-Янв-2012 02:42

[Q] 

Kaper

Миссия: невыполнима / Mission: Impossible«Невозможное возможно...»-
Год выпуска: 1996
Страна: США
Жанр: боевик, триллер
Продолжительность: 01:50:12
Перевод: Профессиональный (многоголосый закадровый)-Режиссер:
Брайан Де Пальма / Brian De Palma
-В ролях:
Том Круз
Джон Войт
Эммануэль Беар
Генри Черни
Жан Рено
Винг Реймз
Кристин Скотт Томас
Ванесса Редгрейв
Дейл Дай
Марчел Юреш ...
-Описание:
Агент ЦРУ Итон Хант оказался в положении подозреваемого в предательстве «крота», из-за которого погибли несколько членов его команды, включая руководителя группы Джима Фелпса. В живых осталась еще только коллега Ханта — жена Фелпса агент Клэр. Чтобы снять с себя обвинения в предательстве, Ханту надо найти настоящего «крота».
- -Бюджет: $80 000 000
Сборы в США: $180 981 856
Сборы в мире: + $275 512 947 = $456 494 803
Премьера (мир): 22 мая 1996
Релиз на DVD: 1 декабря 2009-Качество: BDRip
Формат: AVI
Видео: 720x304 (2.35:1), 23.976 fps, XviD, 2 375 Kbps
Аудио: AC3, 448 Kbps, 48.0 KHz, 6 ch
Код:
Format                           : AVI
Format/Info                      : Audio Video Interleave
Format profile                   : OpenDML
File size                        : 2.18 GiB
Duration                         : 1h 50mn
Overall bit rate                 : 2 835 Kbps
Writing application              : VirtualDubModRus 1.5.10.2 (build 2542/release)
Writing library                  : VirtualDubMod build 2542/release
Video
ID                               : 0
Format                           : MPEG-4 Visual
Format profile                   : Advanced [email protected]
Format settings, BVOP            : 1
Format settings, QPel            : No
Format settings, GMC             : No warppoints
Format settings, Matrix          : Custom
Muxing mode                      : Packed bitstream
Codec ID                         : XVID
Codec ID/Hint                    : XviD
Duration                         : 1h 50mn
Bit rate                         : 2 375 Kbps
Width                            : 720 pixels
Height                           : 304 pixels
Display aspect ratio             : 2.35:1
Frame rate                       : 23.976 fps
Color space                      : YUV
Chroma subsampling               : 4:2:0
Bit depth                        : 8 bits
Scan type                        : Progressive
Compression mode                 : Lossy
Bits/(Pixel*Frame)               : 0.453
Stream size                      : 1.83 GiB (84%)
Writing library                  : XviD 1.2.1 (UTC 2008-12-04)
Audio
ID                               : 1
Format                           : AC-3
Format/Info                      : Audio Coding 3
Mode extension                   : CM (complete main)
Codec ID                         : 2000
Duration                         : 1h 50mn
Bit rate mode                    : Constant
Bit rate                         : 448 Kbps
Channel(s)                       : 6 channels
Channel positions                : Front: L C R, Side: L R, LFE
Sampling rate                    : 48.0 KHz
Bit depth                        : 16 bits
Compression mode                 : Lossy
Stream size                      : 353 MiB (16%)
Alignment                        : Split accross interleaves
Interleave, duration             : 42 ms (1.00 video frame)
Interleave, preload duration     : 500 ms
-

» В тоннеле под Ла-Маншем поезда встречных направлений ходят по изолированным тоннелям: герой с крыши поезда никак не мог видеть идущий навстречу состав.
» Изначально, на роль Клэр Брайан Де Пальма предлагал Жюльет Бинош.
» Это первый фильм, который показывался в более чем 3000-х кинотеатрах в США.
» Роль Ванессы Редгрейв изначально писалась для мужчины.
» Фильм снят по телесериалу Брюса Геллера.
Миссия: невыполнима 2 / Mission: Impossible II«Невозможное возможно...снова»-
Год выпуска: 2000
Страна: США, Германия
Жанр: боевик, триллер
Продолжительность: 02:03:35
Перевод: Профессиональный (многоголосый закадровый)-Режиссер:
Джон Ву / John Woo
-В ролях:
Том Круз
Дюгрэй Скотт
Тэнди Ньютон
Винг Реймз
Ричард Роксбург
Джон Полсон
Брендан Глисон
Раде Шербеджия
Уильям Мапотер
Доминик Пурселл ...
-Описание:
Если мир внезапно оказывается перед лицом ужасной катастрофы, есть лишь один человек, который может исправить это ужасное положение. Его имя Итан Хант, он прирожденный специалист по разрешению самых неразрешимых ситуаций.Теперь у Итана — новый, строгий начальник, новая очаровательная возлюбленная, новый коварный противник и новое задание, которое простому смертному просто не по плечу. Но Итан Хант не был бы Итаном Хантом, если бы не смог с блеском выполнить очередную невыполнимую миссию: справиться с кровожадными террористами и спасти планету от ужасного, смертельного вируса!
- -Бюджет: $125 000 000
Сборы в США: $215 409 889
Сборы в мире: + $330 492 673 = $545 902 562
Сборы в России: $1 320 000
Премьера (мир): 24 мая 2000
Премьера (РФ): 7 июля 2000
Релиз на DVD: 15 марта 2011-Качество: BDRip
Формат: AVI
Видео: 720x304 (2.35:1), 23.976 fps, XviD, 2 069 Kbps
Аудио: AC3, 448 Kbps, 48.0 KHz, 6 ch
Код:
Format                           : AVI
Format/Info                      : Audio Video Interleave
Format profile                   : OpenDML
File size                        : 2.18 GiB
Duration                         : 2h 3mn
Overall bit rate                 : 2 529 Kbps
Writing application              : VirtualDubModRus 1.5.10.2 (build 2542/release)
Writing library                  : VirtualDubMod build 2542/release
Video
ID                               : 0
Format                           : MPEG-4 Visual
Format profile                   : Advanced [email protected]
Format settings, BVOP            : 1
Format settings, QPel            : No
Format settings, GMC             : No warppoints
Format settings, Matrix          : Custom
Muxing mode                      : Packed bitstream
Codec ID                         : XVID
Codec ID/Hint                    : XviD
Duration                         : 2h 3mn
Bit rate                         : 2 069 Kbps
Width                            : 720 pixels
Height                           : 304 pixels
Display aspect ratio             : 2.35:1
Frame rate                       : 23.976 fps
Color space                      : YUV
Chroma subsampling               : 4:2:0
Bit depth                        : 8 bits
Scan type                        : Progressive
Compression mode                 : Lossy
Bits/(Pixel*Frame)               : 0.394
Stream size                      : 1.79 GiB (82%)
Writing library                  : XviD 1.2.1 (UTC 2008-12-04)
Audio
ID                               : 1
Format                           : AC-3
Format/Info                      : Audio Coding 3
Mode extension                   : CM (complete main)
Codec ID                         : 2000
Duration                         : 2h 3mn
Bit rate mode                    : Constant
Bit rate                         : 448 Kbps
Channel(s)                       : 6 channels
Channel positions                : Front: L C R, Side: L R, LFE
Sampling rate                    : 48.0 KHz
Bit depth                        : 16 bits
Compression mode                 : Lossy
Stream size                      : 396 MiB (18%)
Alignment                        : Split accross interleaves
Interleave, duration             : 42 ms (1.00 video frame)
Interleave, preload duration     : 500 ms
-

» Персонаж Энтони Хопкинса стал единственным, кто использует фразу «миссия: невыполнима».
Миссия: невыполнима 3 / Mission: Impossible III-
Год выпуска: 2006
Страна: США, Германия, Китай
Жанр: боевик, триллер
Продолжительность: 02:05:24
Перевод: Профессиональный (многоголосый закадровый)-Режиссер:
Джей Джей Абрамс / J.J. Abrams
-В ролях:
Том Круз
Филип Сеймур Хоффман
Винг Реймз
Билли Крудап
Мишель Монахэн
Джонатан Риз Мейерс
Кери Рассел
Мэгги Кью
Саймон Пегг
Эдди Марсан ...
-Описание:
Суперагент Итан Хант решил расстаться с оперативной работой и заняться подготовкой курсантов. Он даже решил жениться на привлекательной, ни о чём не ведающей Джулии. Руководство ЦРУ просит его принять участие в последней операции: спасении его бывшей ученицы Линдси Феррис из лап торговца оружием Оуэна Дэвиана. Мог ли Итан предположить, что за этим заданием последует целая череда смертельно опасных миссий в Ватикане, Нью-Йорке и Шанхае?
- -Бюджет: $150 000 000
Сборы в США: $134 029 801
Сборы в мире: + $263 820 211 = $397 850 012
Сборы в России: $6 269 310
Премьера (мир): 24 апреля 2006, ...
Премьера (РФ): 4 мая 2006
Релиз на DVD: 22 декабря 2011
Релиз на Blu-Ray: 20 октября 2009-Качество: BDRip
Формат: AVI
Видео: 720x304 (2.35:1), 23.976 fps, XviD, 2 035 Kbps
Аудио: AC3, 448 Kbps, 48.0 KHz, 6 ch
Код:
Format                           : AVI
Format/Info                      : Audio Video Interleave
Format profile                   : OpenDML
File size                        : 2.19 GiB
Duration                         : 2h 5mn
Overall bit rate                 : 2 495 Kbps
Writing application              : VirtualDubModRus 1.5.10.2 (build 2542/release)
Writing library                  : VirtualDubMod build 2542/release
Video
ID                               : 0
Format                           : MPEG-4 Visual
Format profile                   : Advanced [email protected]
Format settings, BVOP            : 1
Format settings, QPel            : No
Format settings, GMC             : No warppoints
Format settings, Matrix          : Custom
Muxing mode                      : Packed bitstream
Codec ID                         : XVID
Codec ID/Hint                    : XviD
Duration                         : 2h 5mn
Bit rate                         : 2 035 Kbps
Width                            : 720 pixels
Height                           : 304 pixels
Display aspect ratio             : 2.35:1
Frame rate                       : 23.976 fps
Color space                      : YUV
Chroma subsampling               : 4:2:0
Bit depth                        : 8 bits
Scan type                        : Progressive
Compression mode                 : Lossy
Bits/(Pixel*Frame)               : 0.388
Stream size                      : 1.78 GiB (82%)
Writing library                  : XviD 1.2.1 (UTC 2008-12-04)
Audio
ID                               : 1
Format                           : AC-3
Format/Info                      : Audio Coding 3
Mode extension                   : CM (complete main)
Codec ID                         : 2000
Duration                         : 2h 5mn
Bit rate mode                    : Constant
Bit rate                         : 448 Kbps
Channel(s)                       : 6 channels
Channel positions                : Front: L C R, Side: L R, LFE
Sampling rate                    : 48.0 KHz
Bit depth                        : 16 bits
Compression mode                 : Lossy
Stream size                      : 402 MiB (18%)
Alignment                        : Split accross interleaves
Interleave, duration             : 42 ms (1.00 video frame)
Interleave, preload duration     : 500 ms
-

» Павильонные съемки проходили на студии «Paramount». В предыдущие 18 лет эти павильоны использовались для съемок эпизодов сериала «Star Trek».
» В начале мая 2004 года поступило известие о том, что Том Круз (в качестве продюсера картины) сделал запрос на получение разрешения съемок в здании немецкого парламента. Круз хотел использовать для съемок созданный из стекла и стали 40-метровый купол Рейхстага. Тем не менее, запрос Тома был отклонен главой парламента, Вольфгангом Тирсе. Спикер ответил в следующем ключе: «Здание Рейхстага ни коим образом не может использоваться для съемок фильма, и мы отказываемся даже обсуждать в дальнейшем этот вопрос. Речь идет о защите достоинства нашего парламента».
» Том Круз сделал предложение режиссеру Джо Карнахэну возглавить съемочный процесс после просмотра картины 2002 года «Наркобарон» (кстати, Круз являлся исполнительным продюсером данного фильма). Но Джо так и не удалось найти общий язык с Томом, в результате чего он и покинул проект всего за месяц до предполагаемого начала съемок (август 2004 года). Его уход задержал съемки фильма примерно на год, пока не была найдена кандидатура нового режиссера. Воспользовавшись заминкой, Том принял решение поработать со Стивеном Спилбергом над фильмом «Война миров», выход которого изначально был запланирован на 2006 год. Таким образом, произошла своеобразная рокировка.
» Кери-Энн Мосс была предложена одна из ключевых ролей, после того как Круз ознакомился с картиной актрисы – «Охотник на убийц» 2004 года. Однако после ухода Карнахэна и появления на режиссерском мостике Джеффри Абрамса, персонаж Кери-Энн был удален из сценария.
» Тэнди Ньютон была предложена роль Найи Нордофф Холл, но актриса отказалась от участия в проекте, предпочтя провести время в семейном кругу. Позднее этот персонаж был видоизменен и превратился в Лею Квинт, которую и должна была сыграть Кери-Энн Мосс.
» Первым выбором Круза на режиссерскую позицию был Дэвид Финчер, однако последний предпочел выбрать другой проект – «Короли Догтауна». Впрочем, ему он также не достался.
» Роль главного злодея мог исполнить Кеннет Брана.
» На роль союзника Итана Ханта был выбран Рики Жервас. Позднее эта роль отошла Саймону Пеггу.
» В фильме могла принять участие Скарлетт Йоханссон.
» Сцена взрыва «Ламборгини» была снята вживую, но сердце машины - ее двигатель, все же предварительно вынули.
» Две главные женские роли в фильме достались Мишель Монахан и Кери Расселл, по курьезному совпадению родившимся в один и тот же день - 23 марта 1976 года.
Download / Скачать

Хотите скачать бесплатно? Зарегистрируйтесь на сайте (ссылка на регистрацию). Pirat.ca - самый быстрый торрент трекер в рунете!

Как скачивать  ·   Что такое торрент  ·   Рейтинг и ограничения

Пост 02-Янв-2012 09:14 (спустя 6 часов)

Топик был перенесен из форума Художественные фильмы (Зарубежное кино) в форум Зарубежное Кино

Skinwalker
 

kisu

Гроза морей

Пост 19-Фев-2012 17:45 (спустя 1 месяц 17 дней)

[Q] 

спасибо!!!
[Профиль]  [ЛС] 

Прораб

Легенда

Пост 31-Мар-2012 17:38 (спустя 1 месяц 11 дней)

[Q] 


_________________
Config comp: CPU-i7-2600K/RAM-32Gb/GF580GTX-1536Mb/RAID0(2 SSD-480GB)+RAID5(8 HDD-20Tb)/Win7 64bit.
[Профиль]  [ЛС] 

Ded1

Корсар

Пост 27-Апр-2012 12:03 (спустя 26 дней)

[Q] 

Благодарю.Посмотрим.
[Профиль]  [ЛС] 
Показать сообщения:    
Ответить на тему

Текущее время: Сегодня 14:44

Часовой пояс: GMT + 4



Вы не можете начинать темы
Вы не можете отвечать на сообщения
Вы не можете редактировать свои сообщения
Вы не можете удалять свои сообщения
Вы не можете голосовать в опросах
Вы не можете прикреплять файлы к сообщениям
Вы не можете скачивать файлы

▼ Вниз