ML
     
  Уважаемый Гость!
Вы можете поддержать проект и зарегистрироваться у наших партнеров - онлайн-стратегия MyLands. При регистрации в игре Вы получите код, который сможете активировать после регистрации на pirat.ca и получить 1000 дублонов.

Ваш код:
5f4e94775bc0501caff7b254e79328d304c817d9
 
     

Назад в будущее 1, 2, 3 / Back to the Future Part I, II, III (Роберт Земекис / Robert Zemeckis) [1985 - 1990 г., фантастика, боевик, комедия, приключения, семейный, BDRip]

Ответить на тему
 
Автор
Сообщение

Пост 29-Окт-2011 15:11

[Q] 

St.Max

Лоцман

Назад в будущее 1, 2, 3 / Back to the Future Part I, II, III
Год выпуска: 1985, 1989, 1990
Страна: США
Жанр: фантастика, боевик, комедия, приключения, семейный
Продолжительность: часть 1 (01:56:00), часть 2 (01:47:59), часть 3 (01:58:17)
Режиссер: Роберт Земекис / Robert Zemeckis
В ролях: Майкл Дж. Фокс, Кристофер Ллойд, Лиа Томпсон, Криспин Гловер, Томас Ф. Уилсон, Клодия Уэллс, Марк МакКлюр, Уэнди Джо Спербер, Джордж ДиЧенцо, Фрэнсис Ли МакКейн
Описание:
Назад в будущее 1
Подросток Марти с помощью машины времени, сооруженной его другом профессором доком Брауном, попадает из 80-х в далекие 50-е. Там он встречается со своими будущими родителями, еще подростками, и другом-профессором, совсем молодым.
Он нарушает естественный ход событий прошлого, чем вызывает массу смешных и драматических ситуаций. Собственная смекалка и фантазия профессора помогают преодолеть все препятствия и благополучно вернуться к себе, в свое время.
Назад в будущее 2
Продолжение фантастической истории о приключениях американского подростка во времени. На этот раз с помощью модернизированной Доком машины времени Марти из 80-х попадает в будущее.
Дети Марти в беде, и их надо выручать. Приходится повозиться со злодеем…
Назад в будущее 3
Из газет 1985 года Марти узнает, что доктор Браун погиб еще сто лет назад. Несмотря на просьбы Дока не навещать его в XIX веке, Марти вновь хочет вмешаться в ход событий и на машине времени уносится в 1885 год, навстречу Дикому Западу.
Это путешествие, как и все прежние, не обходится без опасных приключений, но смелый Марти, рискуя жизнью, предотвращает трагедию в жизни Эммета Брауна. Тот, в свою очередь, без памяти влюбляется в очаровательную незнакомку, которую спасает от гибели, и поездка домой — в будущее — теряет для него всякий смысл…
Качество: BDRip
Формат: AVI
Видео кодек: XviD
Аудио кодек: AC3
Видео:
часть 1 - 704x384 (1.83:1), 23.976 fps, XviD build 50, 1405 kbps avg, 0.21 bit/pixel
часть 2 - 704x384 (1.83:1), 23.976 fps, XviD build 50, 1538 kbps avg, 0.23 bit/pixel
часть 3 - 704x384 (1.83:1), 23.976 fps, XviD build 50, 1370 kbps avg, 0.21 bit/pixel
Аудио: 48 kHz, AC3 Dolby Digital, 3/2 (L,C,R,l,r) + LFE ch, 384.00 kbps avg
Часть 1
Формат : AVI
Формат/Информация : Audio Video Interleave
Размер файла : 1,46 Гбайт
Продолжительность : 1 ч. 56 м.
Общий поток : 1799 Кбит/сек
Название фильма : Назад в будущее / Back to the Future (1985)
Режиссёр : $in0bi (Blu-Ray CEE)
Программа кодирования : VirtualDubModRus 1.5.10.2 (build 2542/release)
Видео
Идентификатор : 0
Формат : MPEG-4 Visual
Профиль формата : Advanced [email protected]
Параметр BVOP формата : 2
Параметр QPel формата : Нет
Параметр GMC формата : Без точки перехода
Параметр матрицы формата : Выборочная
Идентификатор кодека : XVID
Идентификатор кодека/Подсказка : XviD
Продолжительность : 1 ч. 56 м.
Битрейт : 1405 Кбит/сек
Ширина : 704 пикселя
Высота : 384 пикселя
Соотношение сторон : 16:9
Частота кадров : 23,976 кадра/сек
Цветовое пространство : YUV
Субдискретизация насыщенности : 4:2:0
Битовая глубина : 8 бит
Тип развёртки : Прогрессивная
Метод сжатия : С потерями
Бит/(Пиксели*Кадры) : 0.217
Размер потока : 1,14 Гбайт (78%)
Библиотека кодирования : XviD 1.2.1 (UTC 2008-12-04)
Аудио
Идентификатор : 1
Формат : AC-3
Формат/Информация : Audio Coding 3
Расширение режима : CM (complete main)
Идентификатор кодека : 2000
Продолжительность : 1 ч. 56 м.
Вид битрейта : Постоянный
Битрейт : 384 Кбит/сек
Каналы : 6 каналов
Расположение каналов : Front: L C R, Side: L R, LFE
Частота : 48,0 КГц
Битовая глубина : 16 бит
Метод сжатия : С потерями
Размер потока : 319 Мбайт (21%)
Выравнивание : Разделение по промежуткам
Продолжительность промежутка : 42 мс. (1,00 видеокадр)
Время предзагрузки промежутка : 500 мс.
Заголовок : дубляж
Часть 2
Формат : AVI
Формат/Информация : Audio Video Interleave
Размер файла : 1,46 Гбайт
Продолжительность : 1 ч. 47 м.
Общий поток : 1932 Кбит/сек
Название фильма : Назад в будущее 2 / Back to the Future Part II (1989)
Режиссёр : $in0bi (Blu-Ray CEE)
Программа кодирования : VirtualDubModRus 1.5.10.2 (build 2542/release)
Видео
Идентификатор : 0
Формат : MPEG-4 Visual
Профиль формата : Advanced [email protected]
Параметр BVOP формата : 2
Параметр QPel формата : Нет
Параметр GMC формата : Без точки перехода
Параметр матрицы формата : Выборочная
Идентификатор кодека : XVID
Идентификатор кодека/Подсказка : XviD
Продолжительность : 1 ч. 47 м.
Битрейт : 1539 Кбит/сек
Ширина : 704 пикселя
Высота : 384 пикселя
Соотношение сторон : 16:9
Частота кадров : 23,976 кадра/сек
Цветовое пространство : YUV
Субдискретизация насыщенности : 4:2:0
Битовая глубина : 8 бит
Тип развёртки : Прогрессивная
Метод сжатия : С потерями
Бит/(Пиксели*Кадры) : 0.237
Размер потока : 1,16 Гбайт (80%)
Библиотека кодирования : XviD 1.2.1 (UTC 2008-12-04)
Аудио
Идентификатор : 1
Формат : AC-3
Формат/Информация : Audio Coding 3
Расширение режима : CM (complete main)
Идентификатор кодека : 2000
Продолжительность : 1 ч. 47 м.
Вид битрейта : Постоянный
Битрейт : 384 Кбит/сек
Каналы : 6 каналов
Расположение каналов : Front: L C R, Side: L R, LFE
Частота : 48,0 КГц
Битовая глубина : 16 бит
Метод сжатия : С потерями
Размер потока : 297 Мбайт (20%)
Выравнивание : Разделение по промежуткам
Продолжительность промежутка : 42 мс. (1,00 видеокадр)
Время предзагрузки промежутка : 500 мс.
Заголовок : дубляж
часть 3
Формат : AVI
Формат/Информация : Audio Video Interleave
Размер файла : 1,46 Гбайт
Продолжительность : 1 ч. 58 м.
Общий поток : 1764 Кбит/сек
Название фильма : Назад в будущее 3 / Back to the Future Part III (1990)
Режиссёр : $in0bi (Blu-Ray CEE)
Программа кодирования : VirtualDubModRus 1.5.10.2 (build 2542/release)
Видео
Идентификатор : 0
Формат : MPEG-4 Visual
Профиль формата : Advanced [email protected]
Параметр BVOP формата : 2
Параметр QPel формата : Нет
Параметр GMC формата : Без точки перехода
Параметр матрицы формата : Выборочная
Идентификатор кодека : XVID
Идентификатор кодека/Подсказка : XviD
Продолжительность : 1 ч. 58 м.
Битрейт : 1371 Кбит/сек
Ширина : 704 пикселя
Высота : 384 пикселя
Соотношение сторон : 16:9
Частота кадров : 23,976 кадра/сек
Цветовое пространство : YUV
Субдискретизация насыщенности : 4:2:0
Битовая глубина : 8 бит
Тип развёртки : Прогрессивная
Метод сжатия : С потерями
Бит/(Пиксели*Кадры) : 0.211
Размер потока : 1,13 Гбайт (78%)
Библиотека кодирования : XviD 1.2.1 (UTC 2008-12-04)
Аудио
Идентификатор : 1
Формат : AC-3
Формат/Информация : Audio Coding 3
Расширение режима : CM (complete main)
Идентификатор кодека : 2000
Продолжительность : 1 ч. 58 м.
Вид битрейта : Постоянный
Битрейт : 384 Кбит/сек
Каналы : 6 каналов
Расположение каналов : Front: L C R, Side: L R, LFE
Частота : 48,0 КГц
Битовая глубина : 16 бит
Метод сжатия : С потерями
Размер потока : 325 Мбайт (22%)
Выравнивание : Разделение по промежуткам
Продолжительность промежутка : 42 мс. (1,00 видеокадр)
Время предзагрузки промежутка : 500 мс.
Заголовок : дубляж
Назад в будущее 1





Назад в будущее 2





Назад в будущее 3




Download / Скачать

Хотите скачать бесплатно? Зарегистрируйтесь на сайте (ссылка на регистрацию). Pirat.ca - самый быстрый торрент трекер в рунете!

Как скачивать  ·   Что такое торрент  ·   Рейтинг и ограничения

Пост 29-Окт-2011 16:27 (спустя 1 час 15 минут)

Топик был перенесен из форума Художественные фильмы (Зарубежное кино) в форум Зарубежное Кино

Чужая
 

XAPOH

Гроза морей

Пост 30-Окт-2011 14:21 (спустя 23 часа)

[Q] 

Заберу в коллекцию. А может и посмотрю еще разок :)
Спасибо!

_________________

<<<Dolus an virtus quis in hoste requirat?>>>
Intel Core i7 2600, 16Gb Ram, GTX 670, SSD.
PS4.
[Профиль]  [ЛС] 

celticross

Морской Волк

177

Пост 31-Окт-2011 18:27 (спустя 1 день 4 часа)

[Q] 

Спасибо, поддержу.

_________________
Ave Pirat.ca!
[Профиль]  [ЛС] 

alexandr.x79

Корсар

807

Пост 13-Янв-2012 18:31 (спустя 2 месяца 13 дней)

[Q] 

Старое,доброе кино.
[Профиль]  [ЛС] 

Brodjga_ne_pirat1974

Лоцман

Пост 04-Фев-2012 22:48 (спустя 22 дня)

[Q] 

Озвучание не Гаврилов?
[Профиль]  [ЛС] 

vovav-1924

Флибустьер

Пост 05-Фев-2012 21:04 (спустя 22 часа)

[Q] 

[Профиль]  [ЛС] 

Volodko

Корсар

Пост 26-Июл-2012 20:56 (спустя 5 месяцев 20 дней)

[Q] 

Дайте скорости, хотелось бы хоть до вечера скачать!!!
За раздачу огромное спасибо, фильм - классика.
[Профиль]  [ЛС] 

eddyApsua

Штурман

Пост 05-Янв-2013 19:49 (спустя 5 месяцев 9 дней)

[Q] 

[Профиль]  [ЛС] 

eddyApsua

Штурман

Пост 05-Янв-2013 19:50 (спустя 1 минута)

[Q] 

Лучший фильм!!!
[Профиль]  [ЛС] 

krab_

Лоцман

Пост 30-Янв-2013 18:40 (спустя 24 дня)

[Q] 

Большое спасибо!!!Лучший в своем жанре
[Профиль]  [ЛС] 

Wisteria

Штурман

Пост 07-Фев-2013 02:50 (спустя 7 дней)

[Q] 

АААА! Автор огромнейшее тебе спасибо, гениальнейшая трилогия!
[Профиль]  [ЛС] 

alex1240

Юнга

Пост 16-Фев-2014 17:06 (спустя 1 год)

[Q] 

Дайте скорости пожалуйста!!!
[Профиль]  [ЛС] 
Показать сообщения:    
Ответить на тему

Текущее время: Сегодня 15:34

Часовой пояс: GMT + 4



Вы не можете начинать темы
Вы не можете отвечать на сообщения
Вы не можете редактировать свои сообщения
Вы не можете удалять свои сообщения
Вы не можете голосовать в опросах
Вы не можете прикреплять файлы к сообщениям
Вы не можете скачивать файлы

▼ Вниз