ML
     
  Уважаемый Гость!
Вы можете поддержать проект и зарегистрироваться у наших партнеров - онлайн-стратегия MyLands. При регистрации в игре Вы получите код, который сможете активировать после регистрации на pirat.ca и получить 1000 дублонов.

Ваш код:
500cb7bd8d2cec9a8aba647a87ce41c4b76f06bd
 
     

Джейсон Борн: Квадрология / Jason Bourne: Quadrilogy (Идентификация Борна + Превосходство Борна + Ультиматум Борна + Эволюция Борна) (Даг Лайман, Пол Гринграсс, Тони Гилрой) [2002-2012 г., Боевик, детектив, триллер, BDRip-AVC] Dub + Subs (Rus, Eng)

Ответить на тему
 
Автор
Сообщение

Пост 22-Фев-2015 15:31

[Q] 

moscowpan

-Джейсон Борн: Квадрология / Jason Bourne: Quadrilogy-Идентификация Борна, Превосходство Борна, Ультиматум Борна, Эволюция Борна- Года выпуска: 2002, 2004, 2007, 2012
Жанр: Боевик, детектив, триллер
Продолжительность: 01:58:36 | 01:48:31 | 01:55:13 | 02:15:02
Год выпуска: 2002
Производство: США, Германия, Чехия / Universal Pictures, Hypnotic, Stillking Films
Жанр: Боевик, детектив, триллер
Продолжительность: 01:58:36
Перевод: Профессиональный (полное дублирование)
Субтитры: Русские, русские (Forced), русские (комментарии), английские
Режиссер: Даг Лайман
В ролях: Мэтт Дэймон, Франка Потенте, Крис Купер, Клайв Оуэн, Брайан Кокс, Адевале Акиннуойе-Агбадже, Гэбриел Манн, Уолтон Гоггинс, Джош Хэмилтон, Джулия Стайлз
О фильме: Команда итальянского рыболовецкого судна находит в водах Средиземного моря тело мужчины. У него два пулевых ранения в спине и имплантированный в бедро микрофильм, помеченный номером швейцарского банка. Когда незнакомец приходит в себя, оказывается, что он не помнит кто он, и что с ним случилось, однако он может говорить на нескольких языках и обладает другими необычными способностями. Получив в Цюрихе деньги с указанного банковского счета, он узнает свое имя Джейсон Борн. Но настоящее это его имя или нет? Пытаясь восстановить свое прошлое, он находит свой адрес в Париже, но вместе с этим понимает, что отслеживается убийцей. Борн уговаривает немецкую студентку Мэри отвезти его в Париж, чтобы выяснить все о своем прошлом и понять, кто хочет его убить…
Бюджет: $60 000 000

Качество: BDRip-AVC
Формат: MKV
Видео: H.264, 1056x448 (2,35:1), 23,976 кадр/сек, 2340 Кбит/сек, 0.206 bit/pixel
Аудио#1: 48 kHz, AC3 Dolby Digital, 3/2 (L,C,R,l,r) + LFE ch, ~384.00 kbps avg | RUS
Аудио#2: 48 kHz, AC3 Dolby Digital, 3/2 (L,C,R,l,r) + LFE ch, ~384.00 kbps avg | ENG
General
Unique ID : 237477381134668927242193487676450282691 (0xB2A87ADD9F6042F6B679325E6D241CC3)
Complete name : ..\Jason.Bourne.Quadrilogy.[2002-2012]_[pirat.ca]\Identifikaciya.Borna.2002.D.BDRip.mkv
Format : Matroska
Format version : Version 4 / Version 2
File size : 2.58 GiB
Duration : 1h 58mn
Overall bit rate : 3 109 Kbps
Movie name : Идентификация Борна [pirat.ca]
Encoded date : UTC 2015-02-22 10:46:21
Writing application : mkvmerge v7.6.0 ('Garden of Dreams') 32bit built on Feb 8 2015 12:51:39
Writing library : libebml v1.3.1 + libmatroska v1.4.2
DURATION : 01:50:26.350000000
NUMBER_OF_FRAMES : 986
NUMBER_OF_BYTES : 56120
_STATISTICS_WRITING_APP : mkvmerge v7.6.0 ('Garden of Dreams') 32bit built on Feb 8 2015 12:51:39
_STATISTICS_WRITING_DATE_UTC : 2015-02-22 10:46:21
_STATISTICS_TAGS : BPS DURATION NUMBER_OF_FRAMES NUMBER_OF_BYTES
Video
ID : 1
Format : AVC
Format/Info : Advanced Video Codec
Format profile : [email protected]
Format settings, CABAC : Yes
Format settings, ReFrames : 7 frames
Codec ID : V_MPEG4/ISO/AVC
Duration : 1h 58mn
Bit rate : 2 340 Kbps
Width : 1 056 pixels
Height : 448 pixels
Display aspect ratio : 2.35:1
Original display aspect ratio : 2.35:1
Frame rate mode : Constant
Frame rate : 23.976 fps
Color space : YUV
Chroma subsampling : 4:2:0
Bit depth : 8 bits
Scan type : Progressive
Bits/(Pixel*Frame) : 0.206
Stream size : 1.89 GiB (73%)
Title : Identifikaciya.Borna.2002.D.BDRip.x264
Writing library : x264 core 116 r2019M 9cc407d
Encoding settings : cabac=1 / ref=8 / deblock=1:-2:-2 / analyse=0x3:0x133 / me=umh / subme=9 / psy=1 / psy_rd=1.00:0.00 / mixed_ref=1 / me_range=42 / chroma_me=1 / trellis=1 / 8x8dct=1 / cqm=0 / deadzone=21,11 / fast_pskip=0 / chroma_qp_offset=-2 / threads=8 / sliced_threads=0 / nr=0 / decimate=1 / interlaced=0 / bluray_compat=0 / constrained_intra=0 / bframes=8 / b_pyramid=1 / b_adapt=2 / b_bias=0 / direct=3 / weightb=1 / open_gop=0 / weightp=2 / keyint=250 / keyint_min=23 / scenecut=45 / intra_refresh=0 / rc_lookahead=100 / rc=2pass / mbtree=1 / bitrate=2340 / ratetol=1.0 / qcomp=0.60 / qpmin=10 / qpmax=51 / qpstep=4 / cplxblur=20.0 / qblur=0.7 / ip_ratio=1.37 / aq=1:1.20
Language : English
Default : Yes
Forced : No
DURATION : 01:58:36.943000000
NUMBER_OF_FRAMES : 170636
NUMBER_OF_BYTES : 2080631155
_STATISTICS_WRITING_APP : mkvmerge v7.6.0 ('Garden of Dreams') 32bit built on Feb 8 2015 12:51:39
_STATISTICS_WRITING_DATE_UTC : 2015-02-22 10:46:21
_STATISTICS_TAGS : BPS DURATION NUMBER_OF_FRAMES NUMBER_OF_BYTES
Audio #1
ID : 2
Format : AC-3
Format/Info : Audio Coding 3
Mode extension : CM (complete main)
Format settings, Endianness : Big
Codec ID : A_AC3
Duration : 1h 58mn
Bit rate mode : Constant
Bit rate : 384 Kbps
Channel(s) : 6 channels
Channel positions : Front: L C R, Side: L R, LFE
Sampling rate : 48.0 KHz
Bit depth : 16 bits
Compression mode : Lossy
Stream size : 326 MiB (12%)
Language : Russian
Default : Yes
Forced : Yes
DURATION : 01:58:36.992000000
NUMBER_OF_FRAMES : 222406
NUMBER_OF_BYTES : 341615616
_STATISTICS_WRITING_APP : mkvmerge v7.6.0 ('Garden of Dreams') 32bit built on Feb 8 2015 12:51:39
_STATISTICS_WRITING_DATE_UTC : 2015-02-22 10:46:21
_STATISTICS_TAGS : BPS DURATION NUMBER_OF_FRAMES NUMBER_OF_BYTES
Audio #2
ID : 3
Format : AC-3
Format/Info : Audio Coding 3
Mode extension : CM (complete main)
Format settings, Endianness : Big
Codec ID : A_AC3
Duration : 1h 58mn
Bit rate mode : Constant
Bit rate : 384 Kbps
Channel(s) : 6 channels
Channel positions : Front: L C R, Side: L R, LFE
Sampling rate : 48.0 KHz
Bit depth : 16 bits
Compression mode : Lossy
Stream size : 326 MiB (12%)
Language : English
Default : No
Forced : No
DURATION : 01:58:36.992000000
NUMBER_OF_FRAMES : 222406
NUMBER_OF_BYTES : 341615616
_STATISTICS_WRITING_APP : mkvmerge v7.6.0 ('Garden of Dreams') 32bit built on Feb 8 2015 12:51:39
_STATISTICS_WRITING_DATE_UTC : 2015-02-22 10:46:21
_STATISTICS_TAGS : BPS DURATION NUMBER_OF_FRAMES NUMBER_OF_BYTES
Text #1
ID : 4
Format : UTF-8
Codec ID : S_TEXT/UTF8
Codec ID/Info : UTF-8 Plain Text
Language : English
Default : No
Forced : No
Text #2
ID : 5
Format : UTF-8
Codec ID : S_TEXT/UTF8
Codec ID/Info : UTF-8 Plain Text
Title : Com
Language : Russian
Default : No
Forced : No
Text #3
ID : 6
Format : UTF-8
Codec ID : S_TEXT/UTF8
Codec ID/Info : UTF-8 Plain Text
Title : Forced
Language : Russian
Default : Yes
Forced : Yes
Text #4
ID : 7
Format : UTF-8
Codec ID : S_TEXT/UTF8
Codec ID/Info : UTF-8 Plain Text
Language : Russian
Default : No
Forced : No
Год выпуска: 2004
Производство: США, Германия / Universal Pictures, Ludlum Entertainment, The Kennedy/Marshall Company
Жанр: Боевик, детектив, триллер
Продолжительность: 01:48:31
Перевод: Профессиональный (полное дублирование)
Субтитры: Русские, русские (Forced), русские (комментарии), английские
Режиссер: Пол Гринграсс
В ролях: Мэтт Дэймон, Франка Потенте, Брайан Кокс, Джулия Стайлз, Карл Урбан, Гэбриел Манн, Джоан Аллен, Мартон Чокаш, Том Гэллоп, Джон Бедфорд Ллойд
О фильме: Суперагент ЦРУ Джейсон Борн вновь оказывается подставленным и вынужден помимо возложенной на него задачи государственного значения спасать себя, а заодно и других небезразличных ему людей.
В процессе выполнения миссии судьба заносит Борна в Россию, где его ждет множество характерных для страны, но непривычных западному человеку сюрпризов.
Бюджет: $75 000 000

Качество: BDRip-AVC
Формат: MKV
Видео: H.264, 1056x448 (2,35:1), 23,976 кадр/сек, 2630 Кбит/сек, 0.232 bit/pixel
Аудио#1: 48 kHz, AC3 Dolby Digital, 3/2 (L,C,R,l,r) + LFE ch, ~384.00 kbps avg | RUS
Аудио#2: 48 kHz, AC3 Dolby Digital, 3/2 (L,C,R,l,r) + LFE ch, ~384.00 kbps avg | ENG
General
Unique ID : 201739006442053914472910930830724195259 (0x97C584F3D8215A69A018A9BB80E463BB)
Complete name : ..\Jason.Bourne.Quadrilogy.[2002-2012]_[pirat.ca]\Prevoshodstvo.Borna.2004.D.BDRip.mkv
Format : Matroska
Format version : Version 4 / Version 2
File size : 2.58 GiB
Duration : 1h 48mn
Overall bit rate : 3 399 Kbps
Movie name : Превосходство Борна [pirat.ca]
Encoded date : UTC 2015-02-22 11:00:18
Writing application : mkvmerge v7.6.0 ('Garden of Dreams') 32bit built on Feb 8 2015 12:51:39
Writing library : libebml v1.3.1 + libmatroska v1.4.2
DURATION : 01:41:06.107000000
NUMBER_OF_FRAMES : 636
NUMBER_OF_BYTES : 39640
_STATISTICS_WRITING_APP : mkvmerge v7.6.0 ('Garden of Dreams') 32bit built on Feb 8 2015 12:51:39
_STATISTICS_WRITING_DATE_UTC : 2015-02-22 11:00:18
_STATISTICS_TAGS : BPS DURATION NUMBER_OF_FRAMES NUMBER_OF_BYTES
Video
ID : 1
Format : AVC
Format/Info : Advanced Video Codec
Format profile : [email protected]
Format settings, CABAC : Yes
Format settings, ReFrames : 9 frames
Codec ID : V_MPEG4/ISO/AVC
Duration : 1h 48mn
Bit rate : 2 630 Kbps
Width : 1 056 pixels
Height : 448 pixels
Display aspect ratio : 2.35:1
Frame rate mode : Constant
Frame rate : 23.976 fps
Color space : YUV
Chroma subsampling : 4:2:0
Bit depth : 8 bits
Scan type : Progressive
Bits/(Pixel*Frame) : 0.232
Stream size : 1.94 GiB (75%)
Title : Превосходство Борна
Writing library : x264 core 116 r2019M 9cc407d
Encoding settings : cabac=1 / ref=10 / deblock=1:-2:-1 / analyse=0x3:0x133 / me=umh / subme=9 / psy=1 / psy_rd=1.00:0.00 / mixed_ref=1 / me_range=32 / chroma_me=1 / trellis=1 / 8x8dct=1 / cqm=0 / deadzone=21,11 / fast_pskip=0 / chroma_qp_offset=-2 / threads=8 / sliced_threads=0 / nr=0 / decimate=1 / interlaced=0 / bluray_compat=0 / constrained_intra=0 / bframes=8 / b_pyramid=1 / b_adapt=2 / b_bias=0 / direct=3 / weightb=1 / open_gop=0 / weightp=2 / keyint=250 / keyint_min=23 / scenecut=45 / intra_refresh=0 / rc_lookahead=80 / rc=2pass / mbtree=1 / bitrate=2630 / ratetol=1.0 / qcomp=0.60 / qpmin=10 / qpmax=51 / qpstep=4 / cplxblur=20.0 / qblur=0.7 / ip_ratio=1.37 / aq=1:1.20
Language : English
Default : Yes
Forced : No
DURATION : 01:48:31.464000000
NUMBER_OF_FRAMES : 156119
NUMBER_OF_BYTES : 2139848957
_STATISTICS_WRITING_APP : mkvmerge v7.6.0 ('Garden of Dreams') 32bit built on Feb 8 2015 12:51:39
_STATISTICS_WRITING_DATE_UTC : 2015-02-22 11:00:18
_STATISTICS_TAGS : BPS DURATION NUMBER_OF_FRAMES NUMBER_OF_BYTES
Audio #1
ID : 2
Format : AC-3
Format/Info : Audio Coding 3
Mode extension : CM (complete main)
Format settings, Endianness : Big
Codec ID : A_AC3
Duration : 1h 48mn
Bit rate mode : Constant
Bit rate : 384 Kbps
Channel(s) : 6 channels
Channel positions : Front: L C R, Side: L R, LFE
Sampling rate : 48.0 KHz
Bit depth : 16 bits
Compression mode : Lossy
Stream size : 298 MiB (11%)
Title : Dub AC3, 5.1 ch., 384 kbps
Language : Russian
Default : Yes
Forced : Yes
DURATION : 01:48:31.488000000
NUMBER_OF_FRAMES : 203484
NUMBER_OF_BYTES : 312551424
_STATISTICS_WRITING_APP : mkvmerge v7.6.0 ('Garden of Dreams') 32bit built on Feb 8 2015 12:51:39
_STATISTICS_WRITING_DATE_UTC : 2015-02-22 11:00:18
_STATISTICS_TAGS : BPS DURATION NUMBER_OF_FRAMES NUMBER_OF_BYTES
Audio #2
ID : 3
Format : AC-3
Format/Info : Audio Coding 3
Mode extension : CM (complete main)
Format settings, Endianness : Big
Codec ID : A_AC3
Duration : 1h 48mn
Bit rate mode : Constant
Bit rate : 384 Kbps
Channel(s) : 6 channels
Channel positions : Front: L C R, Side: L R, LFE
Sampling rate : 48.0 KHz
Bit depth : 16 bits
Compression mode : Lossy
Stream size : 298 MiB (11%)
Title : Original AC3, 5.1 ch., 384 kbps
Language : English
Default : No
Forced : No
DURATION : 01:48:31.488000000
NUMBER_OF_FRAMES : 203484
NUMBER_OF_BYTES : 312551424
_STATISTICS_WRITING_APP : mkvmerge v7.6.0 ('Garden of Dreams') 32bit built on Feb 8 2015 12:51:39
_STATISTICS_WRITING_DATE_UTC : 2015-02-22 11:00:18
_STATISTICS_TAGS : BPS DURATION NUMBER_OF_FRAMES NUMBER_OF_BYTES
Text #1
ID : 4
Format : UTF-8
Codec ID : S_TEXT/UTF8
Codec ID/Info : UTF-8 Plain Text
Language : English
Default : No
Forced : No
Text #2
ID : 5
Format : UTF-8
Codec ID : S_TEXT/UTF8
Codec ID/Info : UTF-8 Plain Text
Title : Com.
Language : Russian
Default : No
Forced : No
Text #3
ID : 6
Format : UTF-8
Codec ID : S_TEXT/UTF8
Codec ID/Info : UTF-8 Plain Text
Title : Forced
Language : Russian
Default : Yes
Forced : Yes
Text #4
ID : 7
Format : UTF-8
Codec ID : S_TEXT/UTF8
Codec ID/Info : UTF-8 Plain Text
Language : Russian
Default : No
Forced : No
Год выпуска: 2007
Производство: США, Германия / Universal Pictures, Angel Studios, Bourne Again
Жанр: Боевик, детектив, триллер
Продолжительность: 01:55:13
Перевод: Профессиональный (полное дублирование)
Субтитры: Русские, английские
Режиссер: Пол Гринграсс
В ролях: Мэтт Дэймон, Джулия Стайлз, Дэвид Стрэтэйрн, Скотт Гленн, Пэдди Консидайн, Эдгар Рамирез, Альберт Финни, Джоан Аллен, Том Гэллоп, Кори Джонсон, Даниэль Брюль, Джои Анса
О фильме: Он хотел одного - исчезнуть. Вместо этого за Борном теперь охотятся люди, которые сделали его таким, какой он есть. Он потерял память и человека, которого он любил. Но его не удается сдержать даже новому поколению профессиональных убийц. У него только одна цель: вернуться к началу и узнать кем он был, Джейсон Борн.
Он мечется от Москвы к Парижу, через Мадрид и Лондон в Танжер и Нью-Йорк, пытаясь раскрыть последние загадки своего прошлого, в то время как правительственные агенты и Интерпол пытаются помешать ему восстановить всю картину до конца.
Бюджет: $110 000 000

Качество: BDRip-AVC
Формат: MKV
Видео: H.264, 1056x440 (2,40:1), 23,976 кадр/сек, 2432 Кбит/сек, 0.218 bit/pixel
Аудио#1: 48 kHz, AC3 Dolby Digital, 3/2 (L,C,R,l,r) + LFE ch, ~384.00 kbps avg | RUS
Аудио#2: 48 kHz, AC3 Dolby Digital, 3/2 (L,C,R,l,r) + LFE ch, ~384.00 kbps avg | ENG
General
Unique ID : 226341463771208406851048359519507015459 (0xAA47C7BFFE611765A948715BD8E56723)
Complete name : ..\Jason.Bourne.Quadrilogy.[2002-2012]_[pirat.ca]\Ultimatum.Borna.2007.D.BDRip.mkv
Format : Matroska
Format version : Version 4 / Version 2
File size : 2.58 GiB
Duration : 1h 55mn
Overall bit rate : 3 200 Kbps
Movie name : Ультиматум Борна [pirat.ca]
Encoded date : UTC 2015-02-22 11:06:27
Writing application : mkvmerge v7.6.0 ('Garden of Dreams') 32bit built on Feb 8 2015 12:51:39
Writing library : libebml v1.3.1 + libmatroska v1.4.2
DURATION : 01:43:08.147000000
NUMBER_OF_FRAMES : 781
NUMBER_OF_BYTES : 50481
_STATISTICS_WRITING_APP : mkvmerge v7.6.0 ('Garden of Dreams') 32bit built on Feb 8 2015 12:51:39
_STATISTICS_WRITING_DATE_UTC : 2015-02-22 11:06:27
_STATISTICS_TAGS : BPS DURATION NUMBER_OF_FRAMES NUMBER_OF_BYTES
Video
ID : 1
Format : AVC
Format/Info : Advanced Video Codec
Format profile : [email protected]
Format settings, CABAC : Yes
Format settings, ReFrames : 11 frames
Codec ID : V_MPEG4/ISO/AVC
Duration : 1h 55mn
Bit rate : 2 432 Kbps
Width : 1 056 pixels
Height : 440 pixels
Display aspect ratio : 2.40:1
Frame rate mode : Constant
Frame rate : 23.976 fps
Color space : YUV
Chroma subsampling : 4:2:0
Bit depth : 8 bits
Scan type : Progressive
Bits/(Pixel*Frame) : 0.218
Stream size : 1.91 GiB (74%)
Title : Ультиматум Борна
Writing library : x264 core 116 r2019M 9cc407d
Encoding settings : cabac=1 / ref=12 / deblock=1:-2:-1 / analyse=0x3:0x133 / me=umh / subme=9 / psy=1 / psy_rd=1.00:0.00 / mixed_ref=1 / me_range=42 / chroma_me=1 / trellis=1 / 8x8dct=1 / cqm=0 / deadzone=21,11 / fast_pskip=0 / chroma_qp_offset=-2 / threads=8 / sliced_threads=0 / nr=0 / decimate=1 / interlaced=0 / bluray_compat=0 / constrained_intra=0 / bframes=8 / b_pyramid=1 / b_adapt=2 / b_bias=0 / direct=3 / weightb=1 / open_gop=0 / weightp=2 / keyint=250 / keyint_min=23 / scenecut=45 / intra_refresh=0 / rc_lookahead=80 / rc=2pass / mbtree=1 / bitrate=2432 / ratetol=1.0 / qcomp=0.60 / qpmin=10 / qpmax=51 / qpstep=4 / cplxblur=20.0 / qblur=0.7 / ip_ratio=1.37 / aq=1:1.20
Language : English
Default : Yes
Forced : No
DURATION : 01:55:13.866000000
NUMBER_OF_FRAMES : 165767
NUMBER_OF_BYTES : 2100029598
_STATISTICS_WRITING_APP : mkvmerge v7.6.0 ('Garden of Dreams') 32bit built on Feb 8 2015 12:51:39
_STATISTICS_WRITING_DATE_UTC : 2015-02-22 11:06:27
_STATISTICS_TAGS : BPS DURATION NUMBER_OF_FRAMES NUMBER_OF_BYTES
Audio #1
ID : 2
Format : AC-3
Format/Info : Audio Coding 3
Mode extension : CM (complete main)
Format settings, Endianness : Big
Codec ID : A_AC3
Duration : 1h 55mn
Bit rate mode : Constant
Bit rate : 384 Kbps
Channel(s) : 6 channels
Channel positions : Front: L C R, Side: L R, LFE
Sampling rate : 48.0 KHz
Bit depth : 16 bits
Compression mode : Lossy
Stream size : 316 MiB (12%)
Title : Dub AC3, 5.1 ch., 384
Language : Russian
Default : Yes
Forced : Yes
DURATION : 01:55:13.888000000
NUMBER_OF_FRAMES : 216059
NUMBER_OF_BYTES : 331866624
_STATISTICS_WRITING_APP : mkvmerge v7.6.0 ('Garden of Dreams') 32bit built on Feb 8 2015 12:51:39
_STATISTICS_WRITING_DATE_UTC : 2015-02-22 11:06:27
_STATISTICS_TAGS : BPS DURATION NUMBER_OF_FRAMES NUMBER_OF_BYTES
Audio #2
ID : 3
Format : AC-3
Format/Info : Audio Coding 3
Mode extension : CM (complete main)
Format settings, Endianness : Big
Codec ID : A_AC3
Duration : 1h 55mn
Bit rate mode : Constant
Bit rate : 384 Kbps
Channel(s) : 6 channels
Channel positions : Front: L C R, Side: L R, LFE
Sampling rate : 48.0 KHz
Bit depth : 16 bits
Compression mode : Lossy
Stream size : 316 MiB (12%)
Title : Original AC3, 5.1 ch., 384 kbps
Language : English
Default : No
Forced : No
DURATION : 01:55:13.888000000
NUMBER_OF_FRAMES : 216059
NUMBER_OF_BYTES : 331866624
_STATISTICS_WRITING_APP : mkvmerge v7.6.0 ('Garden of Dreams') 32bit built on Feb 8 2015 12:51:39
_STATISTICS_WRITING_DATE_UTC : 2015-02-22 11:06:27
_STATISTICS_TAGS : BPS DURATION NUMBER_OF_FRAMES NUMBER_OF_BYTES
Text #1
ID : 4
Format : UTF-8
Codec ID : S_TEXT/UTF8
Codec ID/Info : UTF-8 Plain Text
Language : English
Default : No
Forced : No
Text #2
ID : 5
Format : UTF-8
Codec ID : S_TEXT/UTF8
Codec ID/Info : UTF-8 Plain Text
Language : Russian
Default : No
Forced : No
Год выпуска: 2012
Производство: США / Universal Pictures
Жанр: Боевик, детектив, триллер
Продолжительность: 02:15:02
Перевод: Профессиональный (полное дублирование)
Субтитры: Русские, английские
Режиссер: Тони Гилрой
В ролях: Джереми Реннер, Рейчел Вайс, Эдвард Нортон, Джоан Аллен, Альберт Финни, Скотт Гленн, Стейси Кич, Донна Мерфи, Майкл Чернус, Кори Столл
О фильме: В игре всегда несколько фигур. Одна из них — Джейсон Борн, другая — совершенный агент Аарон Кросс. Их возможности безграничны. Но даже у идеального оружия бывают сбои…
Бюджет: $125 000 000

Качество: BDRip-AVC
Формат: MKV
Видео: H.264, 960x400 (2.40:1), 23,976 fps, 1874 Кkbps, 0.204 bit/pixel
Аудио#1: 48 kHz, AC3 Dolby Digital, 3/2 (L,C,R,l,r) + LFE ch, ~384.00 kbps avg | RUS
General
Unique ID : 210202351415247293584343441509428044417 (0x9E23801378E70A439BACF4BD8AD52281)
Complete name : ..\Jason.Bourne.Quadrilogy.[2002-2012]_[pirat.ca]\Evolucyja.Borna.2012.D.BDRip.mkv
Format : Matroska
Format version : Version 4 / Version 2
File size : 2.13 GiB
Duration : 2h 15mn
Overall bit rate : 2 257 Kbps
Movie name : Эволюция Борна [pirat.ca]
Encoded date : UTC 2015-02-22 10:56:55
Writing application : mkvmerge v7.6.0 ('Garden of Dreams') 32bit built on Feb 8 2015 12:51:39
Writing library : libebml v1.3.1 + libmatroska v1.4.2
DURATION : 02:02:54.535000000
NUMBER_OF_FRAMES : 1412
NUMBER_OF_BYTES : 77605
_STATISTICS_WRITING_APP : mkvmerge v7.6.0 ('Garden of Dreams') 32bit built on Feb 8 2015 12:51:39
_STATISTICS_WRITING_DATE_UTC : 2015-02-22 10:56:55
_STATISTICS_TAGS : BPS DURATION NUMBER_OF_FRAMES NUMBER_OF_BYTES
Video
ID : 1
Format : AVC
Format/Info : Advanced Video Codec
Format profile : [email protected]
Format settings, CABAC : Yes
Format settings, ReFrames : 10 frames
Codec ID : V_MPEG4/ISO/AVC
Duration : 2h 15mn
Bit rate : 1 874 Kbps
Width : 960 pixels
Height : 400 pixels
Display aspect ratio : 2.40:1
Frame rate mode : Constant
Frame rate : 23.976 fps
Color space : YUV
Chroma subsampling : 4:2:0
Bit depth : 8 bits
Scan type : Progressive
Bits/(Pixel*Frame) : 0.204
Stream size : 1.72 GiB (81%)
Title : Эволюция Борна
Writing library : x264 core 125 r2208 d9d2288
Encoding settings : cabac=1 / ref=10 / deblock=1:-3:-2 / analyse=0x3:0x133 / me=umh / subme=9 / psy=1 / psy_rd=1.05:0.00 / mixed_ref=1 / me_range=48 / chroma_me=0 / trellis=2 / 8x8dct=1 / cqm=0 / deadzone=21,11 / fast_pskip=1 / chroma_qp_offset=-2 / threads=6 / lookahead_threads=1 / sliced_threads=0 / nr=0 / decimate=1 / interlaced=0 / bluray_compat=0 / constrained_intra=0 / bframes=11 / b_pyramid=2 / b_adapt=2 / b_bias=0 / direct=3 / weightb=1 / open_gop=0 / weightp=2 / keyint=240 / keyint_min=23 / scenecut=40 / intra_refresh=0 / rc_lookahead=240 / rc=2pass / mbtree=1 / bitrate=1874 / ratetol=1.0 / qcomp=0.75 / qpmin=0 / qpmax=65 / qpstep=3 / cplxblur=20.0 / qblur=0.5 / vbv_maxrate=20000 / vbv_bufsize=20000 / nal_hrd=none / ip_ratio=1.35 / aq=1:0.80
Language : English
Default : Yes
Forced : No
DURATION : 02:15:02.274000000
NUMBER_OF_FRAMES : 194260
NUMBER_OF_BYTES : 1895524763
_STATISTICS_WRITING_APP : mkvmerge v7.6.0 ('Garden of Dreams') 32bit built on Feb 8 2015 12:51:39
_STATISTICS_WRITING_DATE_UTC : 2015-02-22 10:56:55
_STATISTICS_TAGS : BPS DURATION NUMBER_OF_FRAMES NUMBER_OF_BYTES
Audio
ID : 2
Format : AC-3
Format/Info : Audio Coding 3
Mode extension : CM (complete main)
Format settings, Endianness : Big
Codec ID : A_AC3
Duration : 2h 15mn
Bit rate mode : Constant
Bit rate : 384 Kbps
Channel(s) : 6 channels
Channel positions : Front: L C R, Side: L R, LFE
Sampling rate : 48.0 KHz
Bit depth : 16 bits
Compression mode : Lossy
Stream size : 371 MiB (17%)
Title : [email protected] | DD 5.1 @ 384 kbps
Language : Russian
Default : Yes
Forced : No
Text #1
ID : 3
Format : UTF-8
Codec ID : S_TEXT/UTF8
Codec ID/Info : UTF-8 Plain Text
Language : English
Default : No
Forced : No
Text #2
ID : 4
Format : UTF-8
Codec ID : S_TEXT/UTF8
Codec ID/Info : UTF-8 Plain Text
Title : Goblin
Language : Russian
Default : No
Forced : No
Menu
00:00:00.000 : en:00:00:00.000
00:08:43.690 : en:00:08:43.690
00:14:26.616 : en:00:14:26.616
00:19:57.488 : en:00:19:57.488
00:27:53.297 : en:00:27:53.297
00:34:18.265 : en:00:34:18.265
00:42:52.403 : en:00:42:52.403
00:47:57.374 : en:00:47:57.374
00:53:56.066 : en:00:53:56.066
01:00:29.167 : en:01:00:29.167
01:07:36.636 : en:01:07:36.636
01:14:36.972 : en:01:14:36.972
01:22:39.204 : en:01:22:39.204
01:28:37.687 : en:01:28:37.687
01:36:39.043 : en:01:36:39.043
01:41:05.685 : en:01:41:05.685
01:45:07.968 : en:01:45:07.968
01:52:15.520 : en:01:52:15.520
02:00:07.283 : en:02:00:07.283
02:05:06.416 : en:02:05:06.416
Download / Скачать

Хотите скачать бесплатно? Зарегистрируйтесь на сайте (ссылка на регистрацию). Pirat.ca - самый быстрый торрент трекер в рунете!

Как скачивать  ·   Что такое торрент  ·   Рейтинг и ограничения

Пост 23-Фев-2015 13:11 (спустя 21 час)

Топик был перенесен из форума Зарубежное Кино (Трюм) в форум Зарубежное Кино
erchine
 

xzxscorpxzx

Флибустьер

Пост 14-Сен-2015 02:14 (спустя 6 месяцев 19 дней)

[Q] 

супер!качаю! Спасибо!!!
[Профиль]  [ЛС] 

Лекс44

Штурман

Пост 30-Мар-2016 21:01 (спустя 6 месяцев 16 дней)

[Q] 

Опробоваем) Автору респект!!!
[Профиль]  [ЛС] 
Показать сообщения:    
Ответить на тему

Текущее время: Сегодня 01:47

Часовой пояс: GMT + 4



Вы не можете начинать темы
Вы не можете отвечать на сообщения
Вы не можете редактировать свои сообщения
Вы не можете удалять свои сообщения
Вы не можете голосовать в опросах
Вы не можете прикреплять файлы к сообщениям
Вы не можете скачивать файлы

▼ Вниз