ML
     
  Уважаемый Гость!
Вы можете поддержать проект и зарегистрироваться у наших партнеров - онлайн-стратегия MyLands. При регистрации в игре Вы получите код, который сможете активировать после регистрации на pirat.ca и получить 1000 дублонов.

Ваш код:
9cfe162481db953a6549f32179d7b3900b8b8643
 
     

Матрица: Трилогия / The Matrix: Trilogy (Лэрри Вачовски / Larry Wachowski, Энди Вачовски / Andy Wachowski) [BDRip-AVC]

Страницы :  1, 2  След.

Ответить на тему
 
Автор
Сообщение

Пост 30-Окт-2011 00:18

[Q] 

Никита

Гроза морей

Матрица: Трилогия
Матрица / The Matrix
Год выпуска: 1999
Страна: США, Австралия
Жанр: фантастика, боевик, приключения
Продолжительность: 02:16:12
Перевод: Профессиональный (полное дублирование)
Режиссер: Лэрри Вачовски / Larry Wachowski, Энди Вачовски / Andy Wachowski
В ролях: Киану Ривз, Лоренс Фишбёрн, Кэрри-Энн Мосс, Хьюго Уивинг, Глория Фостер, Джо Пантолиано, Маркус Чонг, Джулиан Араханга, Мэтт Доран, Белинда МакКлори
Описание: В недалеком будущем раса машин, наделенных искусственным интеллектом, поработила все человечество. Сознание людей поместили в «Матрицу» - виртуальную реальность, которая копировала повседневную жизнь. В этой искусственной среде жил Нео (Кеану Ривз), работающий программистом в фирме. Охранные системы почувствовали в Нео угрозу. В этот момент с ним связался лидер сопротивления Морфеус. От него Нео узнал, что люди в попытке уничтожить машины закрыли небо облаками, чтобы лишить их возможности использовать солнечные батареи, и машины стали использовать людей вместо источников питания. Однако существует предсказание, согласно которому должен появиться избранный, который приведет человечество к победе над машинами.
Качество: BDRip-AVC
Формат: MKV
Видео кодек: MPEG4 Video (H264)
Аудио кодек: AC3
Видео: AVC; 1184x492 (2.40:1); 1911 Kbps; 23,976 fps; 0,137 bpp
Аудио 1: Russian; AC3; 384 Kbps; CBR; 6 ch; 16 bit
Аудио 2: English; AC3; 384 Kbps; CBR; 6 ch; 16 bit
Субтитры 1: Русские, полные; SRT
Субтитры 2: Английские, полные; SRT





General
Unique ID : 239264335726836174238632827370892003298 (0xB400A2877F499C56A569D52C79E187E2)
Complete name : G:\Кино\Матрица, трилогия\Matrix.1999.BDRip.mkv
Format : Matroska
Format version : Version 2
File size : 2.55 GiB
Duration : 2h 16mn
Overall bit rate : 2 681 Kbps
Encoded date : UTC 2011-10-29 19:12:09
Writing application : mkvmerge v4.0.0 ('The Stars were mine') сборка от Jun 11 2010 23:24:27
Writing library : libebml v1.0.0 + libmatroska v1.0.0
Video
ID : 1
Format : AVC
Format/Info : Advanced Video Codec
Format profile : [email protected]
Format settings, CABAC : Yes
Format settings, ReFrames : 9 frames
Codec ID : V_MPEG4/ISO/AVC
Duration : 2h 16mn
Bit rate : 1 911 Kbps
Width : 1 184 pixels
Height : 492 pixels
Display aspect ratio : 2.40:1
Frame rate : 23.976 fps
Color space : YUV
Chroma subsampling : 4:2:0
Bit depth : 8 bits
Scan type : Progressive
Bits/(Pixel*Frame) : 0.137
Stream size : 1.77 GiB (69%)
Title : BDRip.1080p.by.WoRG
Writing library : x264 core 114 r1924 08d04a4
Encoding settings : cabac=1 / ref=9 / deblock=1:-2:-2 / analyse=0x3:0x133 / me=umh / subme=10 / psy=1 / psy_rd=1.00:0.15 / mixed_ref=1 / me_range=24 / chroma_me=1 / trellis=2 / 8x8dct=1 / cqm=0 / deadzone=6,6 / fast_pskip=0 / chroma_qp_offset=-3 / threads=6 / sliced_threads=0 / nr=0 / decimate=0 / interlaced=0 / constrained_intra=0 / bframes=14 / b_pyramid=2 / b_adapt=2 / b_bias=0 / direct=3 / weightb=1 / open_gop=0 / weightp=2 / keyint=250 / keyint_min=23 / scenecut=40 / intra_refresh=0 / rc_lookahead=60 / rc=2pass / mbtree=1 / bitrate=1911 / ratetol=1.0 / qcomp=0.80 / qpmin=0 / qpmax=69 / qpstep=4 / cplxblur=20.0 / qblur=0.5 / ip_ratio=1.10 / aq=1:0.50
Language : English
Audio #1
ID : 2
Format : AC-3
Format/Info : Audio Coding 3
Mode extension : CM (complete main)
Codec ID : A_AC3
Duration : 2h 16mn
Bit rate mode : Constant
Bit rate : 384 Kbps
Channel(s) : 6 channels
Channel positions : Front: L C R, Side: L R, LFE
Sampling rate : 48.0 KHz
Bit depth : 16 bits
Compression mode : Lossy
Stream size : 374 MiB (14%)
Title : Rus
Language : Russian
Audio #2
ID : 3
Format : AC-3
Format/Info : Audio Coding 3
Mode extension : CM (complete main)
Codec ID : A_AC3
Duration : 2h 16mn
Bit rate mode : Constant
Bit rate : 384 Kbps
Channel(s) : 6 channels
Channel positions : Front: L C R, Side: L R, LFE
Sampling rate : 48.0 KHz
Bit depth : 16 bits
Compression mode : Lossy
Stream size : 374 MiB (14%)
Title : Eng
Language : English
Text #1
ID : 4
Format : UTF-8
Codec ID : S_TEXT/UTF8
Codec ID/Info : UTF-8 Plain Text
Title : Eng
Language : English
Text #2
ID : 5
Format : UTF-8
Codec ID : S_TEXT/UTF8
Codec ID/Info : UTF-8 Plain Text
Title : Rus
Language : Russian
Матрица: Перезагрузка / The Matrix Reloaded
Год выпуска: 2003
Страна: США, Австралия
Жанр: фантастика, боевик, приключения
Продолжительность: 02:16:27
Перевод: Профессиональный (полное дублирование)
Режиссер: Лэрри Вачовски / Larry Wachowski, Энди Вачовски / Andy Wachowski
В ролях: Кеану Ривз, Кэрри-Энн Мосс, Лоуренс Фишборн, Хьюго Уивинг, Джада Пинкетт Смит, Глория Фостер, Моника Беллуччи, Рэй Энтони, Кристин Ану, Энди Арнесс
Описание: Борцы за свободу Нео, Тринити и Морфеус продолжают руководить восстанием людей против Армии Машин. Для уничтожения системы репрессий и эксплуатации они вынуждены прибегнуть не только к арсеналу превосходного оружия, но и к своим выдающимся навыкам.
Участие в миссии по спасению человеческой расы от ее полного истребления приносит им более глубокое понимание конструкции Матрицы и осознание центральной роли Нео в судьбе человечества.
Качество: BDRip-AVC
Формат: MKV
Видео кодек: MPEG4 Video (H264)
Аудио кодек: AC3
Видео: AVC; 1184x492 (2.40:1); 1907 Kbps; 23,976 fps; 0,137 bpp
Аудио 1: Russian; AC3; 384 Kbps; CBR; 6 ch; 16 bit
Аудио 2: English; AC3; 384 Kbps; CBR; 6 ch; 16 bit
Субтитры 1: Русские, неполные; SRT
Субтитры 2: Английские, полные; SRT
Субтитры 3: Русский, полные; SRT





General
Unique ID : 234485118268855713383248048045978122129 (0xB06830EA88E93593A6A2C735C4FD7791)
Complete name : G:\Кино\Матрица, трилогия\Matrix.Reloaded.2003.D.BDRip.mkv
Format : Matroska
Format version : Version 2
File size : 2.55 GiB
Duration : 2h 16mn
Overall bit rate : 2 677 Kbps
Encoded date : UTC 2011-10-29 19:26:11
Writing application : mkvmerge v4.0.0 ('The Stars were mine') сборка от Jun 11 2010 23:24:27
Writing library : libebml v1.0.0 + libmatroska v1.0.0
Video
ID : 1
Format : AVC
Format/Info : Advanced Video Codec
Format profile : [email protected]
Format settings, CABAC : Yes
Format settings, ReFrames : 9 frames
Codec ID : V_MPEG4/ISO/AVC
Duration : 2h 16mn
Bit rate : 1 907 Kbps
Width : 1 184 pixels
Height : 492 pixels
Display aspect ratio : 2.40:1
Frame rate : 23.976 fps
Color space : YUV
Chroma subsampling : 4:2:0
Bit depth : 8 bits
Scan type : Progressive
Bits/(Pixel*Frame) : 0.137
Stream size : 1.77 GiB (69%)
Title : BDRip.1080p.by.WoRG
Writing library : x264 core 114 r1924 08d04a4
Encoding settings : cabac=1 / ref=9 / deblock=1:-2:-2 / analyse=0x3:0x133 / me=umh / subme=10 / psy=1 / psy_rd=1.10:0.10 / mixed_ref=1 / me_range=24 / chroma_me=1 / trellis=2 / 8x8dct=1 / cqm=0 / deadzone=6,6 / fast_pskip=0 / chroma_qp_offset=-3 / threads=6 / sliced_threads=0 / nr=0 / decimate=0 / interlaced=0 / constrained_intra=0 / bframes=14 / b_pyramid=2 / b_adapt=2 / b_bias=0 / direct=3 / weightb=1 / open_gop=0 / weightp=2 / keyint=250 / keyint_min=23 / scenecut=40 / intra_refresh=0 / rc_lookahead=60 / rc=2pass / mbtree=1 / bitrate=1907 / ratetol=1.0 / qcomp=0.80 / qpmin=0 / qpmax=69 / qpstep=4 / cplxblur=20.0 / qblur=0.5 / ip_ratio=1.10 / aq=1:0.50
Language : English
Audio #1
ID : 2
Format : AC-3
Format/Info : Audio Coding 3
Mode extension : CM (complete main)
Codec ID : A_AC3
Duration : 2h 16mn
Bit rate mode : Constant
Bit rate : 384 Kbps
Channel(s) : 6 channels
Channel positions : Front: L C R, Side: L R, LFE
Sampling rate : 48.0 KHz
Bit depth : 16 bits
Compression mode : Lossy
Stream size : 375 MiB (14%)
Title : Rus
Language : Russian
Audio #2
ID : 6
Format : AC-3
Format/Info : Audio Coding 3
Mode extension : CM (complete main)
Codec ID : A_AC3
Duration : 2h 16mn
Bit rate mode : Constant
Bit rate : 384 Kbps
Channel(s) : 6 channels
Channel positions : Front: L C R, Side: L R, LFE
Sampling rate : 48.0 KHz
Bit depth : 16 bits
Compression mode : Lossy
Stream size : 375 MiB (14%)
Title : Eng
Language : English
Text #1
ID : 3
Format : UTF-8
Codec ID : S_TEXT/UTF8
Codec ID/Info : UTF-8 Plain Text
Title : Eng
Language : English
Text #2
ID : 4
Format : UTF-8
Codec ID : S_TEXT/UTF8
Codec ID/Info : UTF-8 Plain Text
Title : Rus
Language : Russian
Text #3
ID : 5
Format : UTF-8
Codec ID : S_TEXT/UTF8
Codec ID/Info : UTF-8 Plain Text
Title : Rus Full
Language : Russian
Матрица: Революция / The Matrix Revolutions
Год выпуска: 2003
Страна: США, Австралия
Жанр: фантастика, боевик, приключения
Продолжительность: 02:08:50
Перевод: Профессиональный (полное дублирование)
Режиссер: Лэрри Вачовски / Larry Wachowski, Энди Вачовски / Andy Wachowski
В ролях: Киану Ривз, Кэрри-Энн Мосс, Лоренс Фишбёрн, Хьюго Уивинг, Моника Беллуччи, Брюс Спенс, Джада Пинкетт Смит Хэролд Перрино, Гарри Дж. Ленникс, Хельмут Бакайтис
Описание: Пока армия Машин пытается уничтожить Зион, его жители из последних сил держат оборону. Но удастся ли им предотвратить полное вторжение в город кишащей орды беспощадных машин до того, как Нео соберет все свои силы и положит конец войне?
Качество: BDRip-AVC
Формат: MKV
Видео кодек: MPEG4 Video (H264)
Аудио кодек: AC3
Видео: AVC; 1184x492 (2.40:1); 2042 Kbps; 23,976 fps; 0,146 bpp
Аудио 1: Russian; AC3; 384 Kbps; CBR; 6 ch; 16 bit
Аудио 2: English; AC3; 384 Kbps; CBR; 6 ch; 16 bit
Субтитры 1: Русские, полные; SRT
Субтитры 2: Английские, полные; SRT





General
Unique ID : 226794817995070500050213414259888925925 (0xAA9F17D6C4B6D70FB451D01EFEB6ACE5)
Complete name : G:\Кино\Матрица, трилогия\Matrix.Revolutions.2003.BDRip.mkv
Format : Matroska
Format version : Version 2
File size : 2.53 GiB
Duration : 2h 8mn
Overall bit rate : 2 812 Kbps
Encoded date : UTC 2011-10-29 19:17:19
Writing application : mkvmerge v4.0.0 ('The Stars were mine') сборка от Jun 11 2010 23:24:27
Writing library : libebml v1.0.0 + libmatroska v1.0.0
Video
ID : 3
Format : AVC
Format/Info : Advanced Video Codec
Format profile : [email protected]
Format settings, CABAC : Yes
Format settings, ReFrames : 9 frames
Codec ID : V_MPEG4/ISO/AVC
Duration : 2h 8mn
Bit rate : 2 042 Kbps
Width : 1 184 pixels
Height : 492 pixels
Display aspect ratio : 2.40:1
Frame rate : 23.976 fps
Color space : YUV
Chroma subsampling : 4:2:0
Bit depth : 8 bits
Scan type : Progressive
Bits/(Pixel*Frame) : 0.146
Stream size : 1.79 GiB (71%)
Title : BDRip.1080p.by.WoRG
Writing library : x264 core 114 r1924 08d04a4
Encoding settings : cabac=1 / ref=9 / deblock=1:-2:-2 / analyse=0x3:0x133 / me=umh / subme=10 / psy=1 / psy_rd=1.10:0.10 / mixed_ref=1 / me_range=24 / chroma_me=1 / trellis=2 / 8x8dct=1 / cqm=0 / deadzone=6,6 / fast_pskip=0 / chroma_qp_offset=-3 / threads=6 / sliced_threads=0 / nr=0 / decimate=0 / interlaced=0 / constrained_intra=0 / bframes=14 / b_pyramid=2 / b_adapt=2 / b_bias=0 / direct=3 / weightb=1 / open_gop=0 / weightp=2 / keyint=250 / keyint_min=23 / scenecut=40 / intra_refresh=0 / rc_lookahead=60 / rc=2pass / mbtree=1 / bitrate=2042 / ratetol=1.0 / qcomp=0.80 / qpmin=0 / qpmax=69 / qpstep=4 / cplxblur=20.0 / qblur=0.5 / ip_ratio=1.10 / aq=1:0.50
Language : English
Audio #1
ID : 1
Format : AC-3
Format/Info : Audio Coding 3
Mode extension : CM (complete main)
Codec ID : A_AC3
Duration : 2h 8mn
Bit rate mode : Constant
Bit rate : 384 Kbps
Channel(s) : 6 channels
Channel positions : Front: L C R, Side: L R, LFE
Sampling rate : 48.0 KHz
Bit depth : 16 bits
Compression mode : Lossy
Stream size : 354 MiB (14%)
Title : Eng
Language : English
Audio #2
ID : 4
Format : AC-3
Format/Info : Audio Coding 3
Mode extension : CM (complete main)
Codec ID : A_AC3
Duration : 2h 8mn
Bit rate mode : Constant
Bit rate : 384 Kbps
Channel(s) : 6 channels
Channel positions : Front: L C R, Side: L R, LFE
Sampling rate : 48.0 KHz
Bit depth : 16 bits
Compression mode : Lossy
Stream size : 354 MiB (14%)
Title : Rus
Language : Russian
Text #1
ID : 2
Format : UTF-8
Codec ID : S_TEXT/UTF8
Codec ID/Info : UTF-8 Plain Text
Title : Eng
Language : English
Text #2
ID : 5
Format : UTF-8
Codec ID : S_TEXT/UTF8
Codec ID/Info : UTF-8 Plain Text
Title : Rus
Language : Russian
Text #3
ID : 6
Format : UTF-8
Codec ID : S_TEXT/UTF8
Codec ID/Info : UTF-8 Plain Text
Title : Rus Full
Language : Russian
Download / Скачать

Хотите скачать бесплатно? Зарегистрируйтесь на сайте (ссылка на регистрацию). Pirat.ca - самый быстрый торрент трекер в рунете!

Как скачивать  ·   Что такое торрент  ·   Рейтинг и ограничения



Последний раз редактировалось: Никита (2011-11-06 21:40), всего редактировалось 2 раз(а)

Пост 30-Окт-2011 11:40 (спустя 11 часов)

Топик был перенесен из форума Художественные фильмы (Зарубежное кино) в форум Зарубежное Кино

Чужая
 

XAPOH

Гроза морей

Пост 05-Ноя-2011 12:30 (спустя 6 дней)

[Q] 

Качаю. Спасибо!

_________________

<<<Dolus an virtus quis in hoste requirat?>>>
Intel Core i7 2600, 16Gb Ram, GTX 670, SSD.
PS4.
[Профиль]  [ЛС] 

Никита ®

Гроза морей

2080

Пост 06-Ноя-2011 21:42 (спустя 1 день 9 часов)

[Q] 

В связи с неприятностью на трекере, торрент был перезалит, скачавшим просьба скачать торрент-файл заново

_________________
Всё гениальное - просто, но не всё простое гениально.
[Профиль]  [ЛС] 

racom

2341

Пост 15-Ноя-2011 21:06 (спустя 8 дней)

[Q] 

залей в эту же раздачу мульт "Аниматрица" для полного комплекта

_________________
[Профиль]  [ЛС] 

Никита ®

Гроза морей

2080

Пост 17-Ноя-2011 17:36 (спустя 1 день 20 часов)

[Q] 

залей в эту же раздачу мульт "Аниматрица" для полного комплекта
Честно говоря впервые слышу о существовании такой вещи...

_________________
Всё гениальное - просто, но не всё простое гениально.
[Профиль]  [ЛС] 

alexandr.x79

Корсар

807

Пост 17-Янв-2012 17:30 (спустя 1 месяц 29 дней)

[Q] 

спасибо
[Профиль]  [ЛС] 

AleХ

Морской Волк

Пост 18-Янв-2012 13:11 (спустя 19 часов)

[Q] 

Спасибо
[Профиль]  [ЛС] 

GalanT

Шкипер

Пост 28-Янв-2012 23:34 (спустя 10 дней)

[Q] 

Спасибо, нужен был этот фильм срочно. Бочонок в трюм!
[Профиль]  [ЛС] 

VaNo192

Корсар

Пост 02-Фев-2012 05:39 (спустя 4 дня)

[Q] 

[Профиль]  [ЛС] 

Volodko

Корсар

Пост 01-Май-2012 19:53 (спустя 2 месяца 28 дней)

[Q] 

Благодарю за раздачу! Фильм, можно сказать, классика.
[Профиль]  [ЛС] 

Jigsaw

Пост 13-Май-2012 12:27 (спустя 11 дней)

[Q] 

 

EvilPuzatik

Корсар

Пост 29-Май-2012 18:30 (спустя 16 дней)

[Q] 


_________________
[Профиль]  [ЛС] 

A.Net

Корсар

Пост 29-Май-2012 18:35 (спустя 5 минут)

[Q] 

[Профиль]  [ЛС] 

SBalykov

Корсар

1452

Пост 17-Июн-2012 07:00 (спустя 18 дней)

[Q] 


_________________
Never put off till tomorrow what can be done after tomorrow...
S.Balykov
[Профиль]  [ЛС] 

Maniac93

Корсар

Пост 06-Июл-2012 17:41 (спустя 19 дней)

[Q] 

Захотелось пересмотреть трилогию снова,а тут как на заказ такая раздача! Автору спасибо!
[Профиль]  [ЛС] 

war37

Лоцман

Пост 21-Июл-2012 12:32 (спустя 14 дней)

[Q] 

[Профиль]  [ЛС] 

СТАЛКЕР

Шкипер

22

Пост 22-Июл-2012 19:23 (спустя 1 день 6 часов)

[Q] 

Благодарствую
[Профиль]  [ЛС] 

kest98

Корсар

Пост 12-Авг-2012 20:58 (спустя 21 день)

[Q] 

СКОРОСТИ !!!
[Профиль]  [ЛС] 

Прораб

Легенда

Пост 08-Сен-2012 22:37 (спустя 27 дней)

[Q] 


_________________
Config comp: CPU-i7-2600K/RAM-32Gb/GF580GTX-1536Mb/RAID0(2 SSD-480GB)+RAID5(8 HDD-20Tb)/Win7 64bit.
[Профиль]  [ЛС] 

xdgx

Флибустьер

Пост 14-Сен-2012 20:23 (спустя 5 дней)

[Q] 

[Профиль]  [ЛС] 

NIKROLUNGER

Флибустьер

60

Пост 21-Сен-2012 04:16 (спустя 6 дней)

[Q] 

Отличная коллекция! То, что искал. aa Благодарю.
[Профиль]  [ЛС] 

gall87

Корсар

495

Пост 01-Окт-2012 22:01 (спустя 10 дней)

[Q] 


_________________
[Профиль]  [ЛС] 

konvikt

Корсар

136

Пост 06-Окт-2012 13:31 (спустя 4 дня)

[Q] 

Спасибо дружище)

_________________
"без музыки жизнь была бы ошибкой..."(c)
[Профиль]  [ЛС] 

Nightwalker

Гроза морей

Пост 07-Окт-2012 21:17 (спустя 1 день 7 часов)

[Q] 


_________________
Хотя и сладостен азарт, по сразу двум идти дорогам, нельзя одной колодой карт, играть и с Дьяволом и Богом.
[Профиль]  [ЛС] 

exrei

Шкипер

161

Пост 29-Ноя-2012 22:25 (спустя 1 месяц 22 дня)

[Q] 

Почистил хард спецом для этой раздачи, Спасибо!

_________________
[Профиль]  [ЛС] 

LEO32

Морской Волк

Пост 11-Дек-2012 18:28 (спустя 11 дней)

[Q] 

[Профиль]  [ЛС] 

mizu

Шкипер

Пост 14-Дек-2012 08:31 (спустя 2 дня 14 часов)

[Q] 

[Профиль]  [ЛС] 

budilnik74

Морской Волк

Пост 01-Янв-2013 06:51 (спустя 17 дней)

[Q] 

[Профиль]  [ЛС] 

Voodoo3dfx

Шкипер

56

Пост 14-Янв-2013 03:21 (спустя 12 дней)

[Q] 

[Профиль]  [ЛС] 
Показать сообщения:    
Ответить на тему

Текущее время: Сегодня 06:07

Часовой пояс: GMT + 4



Вы не можете начинать темы
Вы не можете отвечать на сообщения
Вы не можете редактировать свои сообщения
Вы не можете удалять свои сообщения
Вы не можете голосовать в опросах
Вы не можете прикреплять файлы к сообщениям
Вы не можете скачивать файлы

▼ Вниз