ML
     
  Уважаемый Гость!
Вы можете поддержать проект и зарегистрироваться у наших партнеров - онлайн-стратегия MyLands. При регистрации в игре Вы получите код, который сможете активировать после регистрации на pirat.ca и получить 1000 дублонов.

Ваш код:
a01a592a88af5f9996a6d1baec61b18a1769954d
 
     

Джейсон Борн - Трилогия / The Bourne Trilogy (Даг Лайман / Doug Liman, Пол Гринграсс / Paul Greengrass) [2002-2007 г., боевик, триллер, BDRip]

Ответить на тему
 
Автор
Сообщение

Пост 27-Фев-2012 16:24

[Q] 

Kaper

Идентификация Борна / The Bourne Identity«Кто ты Джейсон Борн?»-
Год выпуска: 2002
Страна: США, Германия, Чехия
Жанр: боевик, триллер
Продолжительность: 01:58:17
Перевод: Профессиональный (дублированный)-Режиссер:
Даг Лайман / Doug Liman
-В ролях:
Мэтт Дэймон
Франка Потенте
Крис Купер
Клайв Оуэн
Брайан Кокс
Адевале Акиннуойе-Агбадже
Гэбриел Манн
Уолтон Гоггинс
Джош Хэмилтон
Джулия Стайлз ...
-Описание:
Команда итальянского рыболовецкого судна находит в водах Средиземного моря тело мужчины. У него два пулевых ранения в спине и имплантированный в бедро микрофильм, помеченный номером швейцарского банка. Когда незнакомец приходит в себя, оказывается, что он не помнит кто он, и что с ним случилось, однако он может говорить на нескольких языках и обладает другими необычными способностями.Получив в Цюрихе деньги с указанного банковского счета, он узнает свое имя Джейсон Борн. Но настоящее это его имя или нет? Пытаясь восстановить свое прошлое, он находит свой адрес в Париже, но вместе с этим понимает, что отслеживается убийцей. Борн уговаривает немецкую студентку Мэри отвезти его в Париж, чтобы выяснить все о своем прошлом и понять, кто хочет его убить...
- -Бюджет: $60 000 000
Сборы в США: $121 661 683
Сборы в мире: + $92 196 151 = $213 857 834
Сборы в России: $1 116 872
Премьера (мир): 6 июня 2002, ...
Премьера (РФ): 10 октября 2002»
Релиз на DVD: 7 июля 2011
Релиз на Blu-Ray: 24 февраля 2009-Качество: BDRip
Формат: AVI
Видео: 720x304 (16:9), 23.976 fps, XviD, 2246 Kbps
Аудио: AC3, 384 Kbps, 48.0 KHz, 6 ch

Формат : AVI
Формат/Информация : Audio Video Interleave
Профиль формата : OpenDML
Размер файла : 2,18 Гбайт
Продолжительность : 1 ч. 58 м.
Общий поток : 2642 Кбит/сек
Программа кодирования : VirtualDubModRus 1.5.10.2 (build 2542/release)
Библиотека кодирования : VirtualDubMod build 2542/release
Видео
Идентификатор : 0
Формат : MPEG-4 Visual
Профиль формата : Advanced [email protected]
Параметр BVOP формата : 1
Параметр QPel формата : Нет
Параметр GMC формата : Без точки перехода
Параметр матрицы формата : Выборочная
Идентификатор кодека : XVID
Идентификатор кодека/Подсказка : XviD
Продолжительность : 1 ч. 58 м.
Битрейт : 2246 Кбит/сек
Ширина : 720 пикселей
Высота : 304 пикселя
Соотношение сторон : 2,35:1
Частота кадров : 23,976 кадра/сек
Цветовое пространство : YUV
Субдискретизация насыщенности : 4:2:0
Битовая глубина : 8 бит
Тип развёртки : Прогрессивная
Метод сжатия : С потерями
Бит/(Пиксели*Кадры) : 0.428
Размер потока : 1,86 Гбайт (85%)
Библиотека кодирования : XviD 1.2.1 (UTC 2008-12-04)
Аудио
Идентификатор : 1
Формат : AC-3
Формат/Информация : Audio Coding 3
Расширение режима : CM (complete main)
Идентификатор кодека : 2000
Продолжительность : 1 ч. 58 м.
Вид битрейта : Постоянный
Битрейт : 384 Кбит/сек
Каналы : 6 каналов
Расположение каналов : Front: L C R, Side: L R, LFE
Частота : 48,0 КГц
Битовая глубина : 16 бит
Метод сжатия : С потерями
Размер потока : 325 Мбайт (15%)
Выравнивание : Разделение по промежуткам
Продолжительность промежутка : 42 мс. (1,00 видеокадр)
Время предзагрузки промежутка : 500 мс.
-

» По графику выход картины был намечен на июнь 2001 года. Задержка была обусловлена желанием режиссера Дага Лимана переснять некоторые сцены фильма. В частности, знаменитую сцену погони в середине фильма.
» Режиссер Даг Лиман не разрешил сценаристу Тони Гилрою прочитать одноименную повесть «Идентификация Борна», по мотивам которой и снимался кинофильм. Вместо этого Даг подготовил набросок сценария, с которым и пришлось возиться господину Гилрою.
» Персонаж Клайва Оуэна в картине катается на автомобиле марки BMW. Любопытно, что Клайв является рекламным лицом BMW — на его счету несколько рекламных роликов.
» Брайан Кокс (Уорд Эббот) уже играл в фильме об убийце, страдающем потерей памяти после перенесенной травмы, в картине 1996 года «Долгий поцелуй на ночь».
» Один из редких фильмов, не обремененных нагрузкой в виде начальных титров.
» Большинство статистов, американских солдат при американском посольстве в Цюрихе, были настоящими морскими пехотинцами, отправленными в Европу по требованию продюсера Фрэнка Маршалла. Разумеется, специальной униформой снабжать их не потребовалось. Вместе с режиссером они работали над диалогами (которые все-таки выкинули из фильма), и разрабатывали тактические схемы для съемок операции в посольстве.
» Композитор Картер Барвелл активно работал над звуковой дорожкой к кинофильму, однако из-за задержки релиза был вынужден покинуть проект в 2001 году.
» В специальном издании фильма на DVD для второго региона отсутствует титр с названием картины как в театральной, так и альтернативной версиях. В начале фильма зритель видит только логотип студии Universal, однако титры появляются только в концовке картины, но в них также отсутствует титр с названием фильма.
» В начале фильма, Джейсон Борн смотрит на себя в зеркало и говорит на голландском: «Weet je wie ik ben? Hou dan godverdomme op met dat gezeik en zeg het me», - что означает: «Ты знаешь, кто я? Тогда хватит нести чушь и скажи мне».
» Винтовка Профессора - Swiss SIG 550 Sniper.
» Пистолет, который Борн обнаруживает в ячейке банка в Цюрихе, - SIG-Sauer SIG Pro SP2009 (9mm).
» В первой версии сценария Мари была американкой, её фамилия – Парселл, и у неё были зеленые волосы. В фильме, она – немка, её фамилия – Кройц, и она несколько раз меняет цвет своих волос по ходу действия картины.
» Изначально фильм должен был выйти на экраны 7 сентября 2001 года. Но когда авторы картины решили переделать концовку, премьеру отодвинули на 31 мая 2002 года. После чего дата выхода изменилась еще раз на 14 июня 2002.
» Роберт Ладлэм, автор книг о Джейсоне Борне, умер во время постпродакшна, 12 марта 2001 года.
» Роль Джейсона Борна была предложена Брэду Питту, однако он предпочел сыграть в «Шпионских играх» (2001).
» Съёмки сцен с участием Брайана Кокса и Криса Купера заняли около пяти дней. Однако позднее оба актера вновь появились на съёмочной площадке, для того чтобы принять участие в пересъёмках.
» Джуди Парфитт сыграла психолога, однако сцена с её участием была вырезана из фильма. Данный эпизод можно посмотреть на DVD в разделе «Удаленные сцены».
» Техника рукопашного боя Джейсона Борна сочетает в себе Крав Магу и Эскриму/Кали.
» Одним из авторов сценария, датированного 2 сентября 2000, числится Дэвид Селф. Однако в готовом фильме его имени нет среди сценаристов.
» Количество трупов: 8
» Средняя продолжительность кадра – 4 секунды.
» При детальном рассмотрении загранпаспорта «героя-россиянина» взору зрителя предстает беспорядочный набор кириллических знаков. Если имя и фамилия героя по-английски написаны как Foma Kiniaev, то в русском варианте он звучит так: Ащьф Лштшфум. Похоже, создатели картины решили не утруждать себя переводом, а попросту взяли клавиатуру с русскими буквами и нажали на те же клавиши, что и на латинице. Кроме того, в паспорте что-то приписано по-испански. Там же есть слово «Российская Федерация», которая выглядит как «РоссийЖая».
» Среди предметов, которые Борн находит в своём депозитном ящике в Гемайнтшафтбанке в Цюрихе — кредитная карточка Американ Экспресс и довольно редкая карта постоянного клиента Air France Club 2000. Она выдаётся только менеджменту компании Air France, и корпоративным клиентам, которые распоряжаются миллионными бюджетами на перелёты.
Превосходство Борна / The Bourne Supremacy«Они украли у него жизнь. Он хочет ее вернуть.»-
Год выпуска: 2004
Страна: США, Германия
Жанр: боевик, триллер
Продолжительность: 01:48:31
Перевод: Профессиональный (дублированный)-Режиссер:
Пол Гринграсс / Paul Greengrass
-В ролях:
Мэтт Дэймон
Карл Урбан
Брайан Кокс
Джоан Аллен
Франка Потенте
Джулия Стайлз
Гэбриел Манн
Мартон Чокаш
Том Гэллоп
Джон Бедфорд Ллойд ...
-Описание:
Суперагент ЦРУ Джейсон Борн вновь оказывается подставленным и вынужден помимо возложенной на него задачи государственного значения спасать себя, а заодно и других небезразличных ему людей.В процессе выполнения миссии судьба заносит Борна в Россию, где его ждет множество характерных для страны, но непривычных западному человеку сюрпризов.
- -Бюджет: $75 000 000
Сборы в США: $176 241 941
Сборы в мире: + $112 258 274 = $288 500 215
Сборы в России: $2 310 000
Премьера (мир): 15 июля 2004
Премьера (РФ): 2 сентября 2004
Релиз на DVD: 14 июля 2011.
Релиз на Blu-Ray: 24 февраля 2009-Качество: BDRip
Формат: AVI
Видео: 720x304 (16:9), 23.976 fps, XviD, 2483 Kbps
Аудио: AC3, 384 Kbps, 48.0 KHz, 6 ch

Формат : AVI
Формат/Информация : Audio Video Interleave
Профиль формата : OpenDML
Размер файла : 2,18 Гбайт
Продолжительность : 1 ч. 48 м.
Общий поток : 2879 Кбит/сек
Программа кодирования : VirtualDubModRus 1.5.10.2 (build 2542/release)
Библиотека кодирования : VirtualDubMod build 2542/release
Видео
Идентификатор : 0
Формат : MPEG-4 Visual
Профиль формата : Advanced [email protected]
Параметр BVOP формата : 1
Параметр QPel формата : Нет
Параметр GMC формата : Без точки перехода
Параметр матрицы формата : Выборочная
Идентификатор кодека : XVID
Идентификатор кодека/Подсказка : XviD
Продолжительность : 1 ч. 48 м.
Битрейт : 2483 Кбит/сек
Ширина : 720 пикселей
Высота : 304 пикселя
Соотношение сторон : 2,35:1
Частота кадров : 23,976 кадра/сек
Цветовое пространство : YUV
Субдискретизация насыщенности : 4:2:0
Битовая глубина : 8 бит
Тип развёртки : Прогрессивная
Метод сжатия : С потерями
Бит/(Пиксели*Кадры) : 0.473
Размер потока : 1,88 Гбайт (86%)
Библиотека кодирования : XviD 1.2.1 (UTC 2008-12-04)
Аудио
Идентификатор : 1
Формат : AC-3
Формат/Информация : Audio Coding 3
Расширение режима : CM (complete main)
Идентификатор кодека : 2000
Продолжительность : 1 ч. 48 м.
Вид битрейта : Постоянный
Битрейт : 384 Кбит/сек
Каналы : 6 каналов
Расположение каналов : Front: L C R, Side: L R, LFE
Частота : 48,0 КГц
Битовая глубина : 16 бит
Метод сжатия : С потерями
Размер потока : 298 Мбайт (13%)
Выравнивание : Разделение по промежуткам
Продолжительность промежутка : 42 мс. (1,00 видеокадр)
Время предзагрузки промежутка : 500 мс.
-

» Брайан Хелджлэнд доводил сценарий до ума, однако его имя не упоминается в титрах.
» Для того чтобы достичь эффекта документального кино, подавляющая часть фильма была снята ручными камерами. Режиссер также постарался избежать использования компьютерной графики. Поэтому практически все трюки в фильме выполнялись вживую, без применения спецэффектов.
» Различные приспособления, которые использует Борн на протяжении фильма, существуют на самом деле, и большинство из них можно купить в обычных магазинах.
» Шариковая ручка Борна – Rotring 600.
» Музыка, которую можно услышать в холле отеля «Hotel Brecker», - четвертая баллада Шопена.
» При съёмках сцены допроса в консульстве, Мэтт Дэймон случайно послал в нокаут Тима Гриффина, сыгравшего Джона Невинса.
» Изначально фильм должен был закончиться сценой, в которой Борн рассказывает дочери Нески о смерти её родителей. Однако на тест-просмотрах зрители посчитали такую концовку незаконченной и слишком размытой. Поэтому для фильма были сняты дополнительные сцены, где Борн разговаривает по телефону с Лэнди, и она говорит ему его настоящее имя. Дополнительные съёмки завершились всего за несколько недель до премьеры фильма.
» По большому счету фильм снимался в обратном порядке. Это означает, что съёмки в Москве прошли первыми, а в последнюю очередь снимали сцены на Гоа.
» По словам сценариста фильма Тони Гилроя, он постарался сделать не адаптацию книги для киноэкрана, а её переосмысление.
» В доме в Мюнхене, Джейсон Борн использует в качестве оружия свернутый журнал. Тактика его боя происходит из вида филиппинских единоборств – Эскрима. Данный стиль предполагает активное использование предметов из повседневного обихода, включая шариковые ручки (как это показано в «Идентификации Борна») и свернутые в трубочку газеты.
» Пистолет, которым пользуется Борн в Москве, - Sig Sauer PRO.
» Пистолет Кирилла - Walther P99.
» Количество трупов: 9.
» По первоначальной версии сценария, Борн должен был провести значительное время в индийской тюрьме.
» Сцена погони по московским улицам получила в 2005 году мировую премию в области трюков Таурус (англ. Taurus World Stunt Awards) в номинации «лучшая машина» (англ. Best Vehicle). Руководил постановкой этой автомобильной погони российский каскадер Виктор Иванов.
» Когда Борн звонит Памеле Ленди в Берлине, слышен голос, говорящий «Мне нужно 90 секунд, чтобы определить его положение». Борн прервал диалог спустя 88 секунд.
» Снимок Ники (Джулия Стайлс) - реальное промо-фото актрисы к фильму «10 причин моей ненависти», сделанное в 1999 г.
» По приезде в Москву из Берлина, Джейсон Борн берет такси и мы видим кадры, как он отъезжает от Киевского вокзала, на самом деле все поезда Берлин - Москва прибывают на Белорусский вокзал.
Ультиматум Борна / The Bourne Ultimatum«Вспомнить все. Не прощать ничего.»-
Год выпуска: 2007
Страна: США, Германия
Жанр: боевик, триллер
Продолжительность: 01:55:19
Перевод: Профессиональный (дублированный)-Режиссер:
Пол Гринграсс / Paul Greengrass
-В ролях:
Мэтт Дэймон
Джулия Стайлз
Дэвид Стрэтэйрн
Скотт Гленн
Пэдди Консидайн
Эдгар Рамирез
Альберт Финни
Джоан Аллен
Том Гэллоп
Кори Джонсон ...
-Описание:
Он хотел одного — исчезнуть. Вместо этого за Борном теперь охотятся люди, которые сделали его таким, какой он есть. Он потерял память и человека, которого он любил. Но его не удается сдержать даже новому поколению профессиональных убийц. У него только одна цель: вернуться к началу и узнать кем он был, Джейсон Борн. Он мечется от Москвы к Парижу, через Мадрид и Лондон в Танжер и Нью-Йорк, пытаясь раскрыть последние загадки своего прошлого, в то время, как правительственные агенты и Интерпол пытаются помешать ему восстановить всю картину до конца.
- -Бюджет: $110 000 000
Сборы в США: $227 471 070
Сборы в мире: + $215 351 649 = $442 822 719
Сборы в России: $5 475 522
Премьера (мир): 25 июля 2007/b]
Премьера (РФ): 23 августа 2007
Релиз на DVD: 10 марта 2011
Релиз на Blu-Ray: 24 февраля 2009-Качество: BDRip
Формат: AVI
Видео: 720x304 (16:9), 23.976 fps, XviD, 2314 Kbps
Аудио: AC3, 448 Kbps, 48.0 KHz, 6 ch

Формат : AVI
Формат/Информация : Audio Video Interleave
Профиль формата : OpenDML
Размер файла : 2,18 Гбайт
Продолжительность : 1 ч. 55 м.
Общий поток : 2710 Кбит/сек
Программа кодирования : VirtualDubModRus 1.5.10.2 (build 2542/release)
Библиотека кодирования : VirtualDubMod build 2542/release
Видео
Идентификатор : 0
Формат : MPEG-4 Visual
Профиль формата : Advanced [email protected]
Параметр BVOP формата : 1
Параметр QPel формата : Нет
Параметр GMC формата : Без точки перехода
Параметр матрицы формата : Выборочная
Идентификатор кодека : XVID
Идентификатор кодека/Подсказка : XviD
Продолжительность : 1 ч. 55 м.
Битрейт : 2314 Кбит/сек
Ширина : 720 пикселей
Высота : 304 пикселя
Соотношение сторон : 2,35:1
Частота кадров : 23,976 кадра/сек
Цветовое пространство : YUV
Субдискретизация насыщенности : 4:2:0
Битовая глубина : 8 бит
Тип развёртки : Прогрессивная
Метод сжатия : С потерями
Бит/(Пиксели*Кадры) : 0.441
Размер потока : 1,86 Гбайт (85%)
Библиотека кодирования : XviD 1.2.1 (UTC 2008-12-04)
Аудио
Идентификатор : 1
Формат : AC-3
Формат/Информация : Audio Coding 3
Расширение режима : CM (complete main)
Идентификатор кодека : 2000
Продолжительность : 1 ч. 55 м.
Вид битрейта : Постоянный
Битрейт : 384 Кбит/сек
Каналы : 6 каналов
Расположение каналов : Front: L C R, Side: L R, LFE
Частота : 48,0 КГц
Битовая глубина : 16 бит
Метод сжатия : С потерями
Размер потока : 317 Мбайт (14%)
Выравнивание : Разделение по промежуткам
Продолжительность промежутка : 42 мс. (1,00 видеокадр)
Время предзагрузки промежутка : 500 мс.
-

» Начало фильма, а именно где Борн находится в Москве, снимали на самом деле в Берлине.
» Съемочная группа фильма насчитывала 250 человек, так что при перелетах приходилось фрахтовать отдельный самолет.
» Чтобы снять погоню на улицах Танжера, камеры подвесили на кабель, протянутый над крышами домов.
» Сцена, в которой Борн спрашивает Никки о своем прошлом снималась на шоссе к юго-западу от Мадрида.
» Съёмочной группе не удалось закрыть хотя бы ненадолго вокзал Ватерлоо, поэтому в кадре видно, что пешеходы рассматривают и показывают пальцами на съёмочную камеру.
» Среди файлов, который Борн ворует из офиса ЦРУ, есть файл ликвидированного агента, на котором стоит фото актёра Ричарда Чемберлена, исполнившего роль Борна в телепостановке 1988 года.
» Короткую погоню и аварии в центре Нью-Йорка снимали шесть недель.
» На книжной полке в кабинете Восена можно увидеть автобиографию Билла Клинтона «Моя жизнь».
» Во время сцены в нью-йоркском офисе ЦРУ на одном из компьютером можно увидеть изображение Дональда Рамсфельда.
Download / Скачать

Хотите скачать бесплатно? Зарегистрируйтесь на сайте (ссылка на регистрацию). Pirat.ca - самый быстрый торрент трекер в рунете!

Как скачивать  ·   Что такое торрент  ·   Рейтинг и ограничения



Последний раз редактировалось: Kaper (2012-02-29 10:21), всего редактировалось 5 раз(а)

Пост 27-Фев-2012 17:41 (спустя 1 час 16 минут)

Топик был перенесен из форума Художественные фильмы (Зарубежное кино) в форум Зарубежное Кино

Skinwalker
 

Bozo

Флибустьер

Пост 27-Фев-2012 18:42 (спустя 2 часа 17 минут)

[Q] 

пожалуй давно хотел пересмотреть )
[Профиль]  [ЛС] 

Принц Датский

Корсар

Пост 27-Фев-2012 18:45 (спустя 2 минуты)

[Q] 

у Вас самые шикарные раздачи!у меня,правда,весь Борн есть. aa az

_________________
[Профиль]  [ЛС] 

Bozo

Флибустьер

Пост 27-Фев-2012 19:07 (спустя 22 минуты)

[Q] 

раздали бы, так вообще цены б не было ) а все, пошло качать
[Профиль]  [ЛС] 

Алёха

Флибустьер

Пост 27-Фев-2012 20:19 (спустя 1 час 11 минут)

[Q] 

Спасибо!!!!
[Профиль]  [ЛС] 

Kaper ®

3485

Пост 27-Фев-2012 20:33 (спустя 14 минут)

[Q] 

у Вас самые шикарные раздачи!у меня,правда,весь Борн есть. aa az
Спасибо за теплые слова. Будем стараться.

_________________
[Профиль]  [ЛС] 

Алёха

Флибустьер

Пост 28-Фев-2012 16:10 (спустя 19 часов)

[Q] 

Поддай газку!!!! Что то скорость совсем ничтожная!!!!
[Профиль]  [ЛС] 

Vitos

Шкипер

Пост 02-Июл-2012 23:03 (спустя 4 месяца 3 дня)

[Q] 

[Профиль]  [ЛС] 

vital1976

Морской Волк

Пост 05-Дек-2012 17:56 (спустя 5 месяцев 2 дня)

[Q] 

опять дубляж... -отморозки майские. an
[Профиль]  [ЛС] 

СТАЛКЕР

Шкипер

22

Пост 09-Дек-2012 18:00 (спустя 4 дня)

[Q] 

Спасибо, положил к себе на полку!
[Профиль]  [ЛС] 

gves007

Морской Волк

Пост 23-Дек-2012 22:40 (спустя 14 дней)

[Q] 

Спасибо!

_________________
Пиво - величайшее изобретение. Колесо, конечно, тоже ничего, но колесо с рыбой - все-таки не то…
[Профиль]  [ЛС] 

slave_hard

Штурман

Пост 02-Фев-2013 19:26 (спустя 1 месяц 9 дней)

[Q] 

Добавте последнего борна ибо фильм стоящий и достоен в этой раздаче быть ( эволюция вроде бы)
[Профиль]  [ЛС] 

olezhka

Морской Волк

Пост 26-Окт-2013 20:05 (спустя 8 месяцев 24 дня)

[Q] 

Спасибо! Можно скорости добавить Скорость как у черепахи
[Профиль]  [ЛС] 

hevard

Гроза морей

2109

Пост 13-Дек-2013 22:33 (спустя 1 месяц 18 дней)

[Q] 

Уже вторые сутки тишина!!! Сиды есть, а скорость ноль!!!
А в чём собсно дело? Раздавать будем или как?
Добавлено спустя 1 час 44 минуты 37 секунд:
Ledainis, спасибо за отдачу!!!

_________________
-Я старый пират и не знаю слов лицензионного соглашения...
[Профиль]  [ЛС] 

Farleyndia

Лоцман

Пост 26-Июн-2014 02:40 (спустя 6 месяцев 12 дней)

[Q] 

Нормально. Спасибо.
[Профиль]  [ЛС] 

The-PRinz:3

Шкипер

Пост 29-Июл-2014 11:56 (спустя 1 месяц 3 дня)

[Q] 

ОТличный кин спасибо Всем качать!!!

_________________
[Профиль]  [ЛС] 

xzxscorpxzx

Флибустьер

Пост 14-Сен-2015 06:57 (спустя 1 год 1 месяц)

[Q] 

качаем! Супер!
[Профиль]  [ЛС] 
Показать сообщения:    
Ответить на тему

Текущее время: Сегодня 09:47

Часовой пояс: GMT + 4



Вы не можете начинать темы
Вы не можете отвечать на сообщения
Вы не можете редактировать свои сообщения
Вы не можете удалять свои сообщения
Вы не можете голосовать в опросах
Вы не можете прикреплять файлы к сообщениям
Вы не можете скачивать файлы

▼ Вниз