ML
     
  Уважаемый Гость!
Вы можете поддержать проект и зарегистрироваться у наших партнеров - онлайн-стратегия MyLands. При регистрации в игре Вы получите код, который сможете активировать после регистрации на pirat.ca и получить 1000 дублонов.

Ваш код:
ca44e9295b9b8527ba1c339c20494f70782efea6
 
     

Халк и Невероятный Халк / Hulk & The Incredible Hulk (Энг Ли / Ang Lee, Луи Летерье / Louis Leterrier) [2003, 2008 гг., фантастика, боевик, BDRip]

Ответить на тему
 
Автор
Сообщение

Пост 01-Мар-2012 18:08

[Q] 

Kaper


Халк / Hulk«Разбуди в себе героя»- Год выпуска: 2003
Страна: США
Жанр: фантастика, боевик
Продолжительность: 02:18:13
Перевод: Профессиональный (дублированный)-Режиссер:
Энг Ли / Ang Lee
-В ролях:
Эрик Бана
Дженнифер Коннелли
Сэм Эллиотт
Джош Лукас
Ник Нолти
Пол Керси
Кара Буоно
Тодд Тэсэн
Кевин О. Ранкин
Селия Уэстон ...
-Описание:
Доктор Брюс Бэннер - ученый, работающий над изобретением новой бомбы - подвергся воздействию гамма-лучей и превратился в Халка — существо невероятной физической силы, которое в состоянии ярости становится огромным зеленым монстром.Его преследуют военные под предводительством генерала Росса, ему приходится бежать через всю страну. В конце концов, у него возникает любовная история с генеральской дочкой Бетти...
- -Бюджет: $137 000 000
Сборы в США: $132 177 234
Сборы в мире: + $113 107 712 = $245 284 946
Сборы в России: $1 315 752-Премьера (мир): 17 июня 2003
Премьера (РФ): 19 июня 2003
Релиз на DVD: 3 февраля 2009
Релиз на Blu-Ray: 9 декабря 2009-Качество: BDRip
Формат: AVI
Видео: 704x384 (16:9), 23.976 fps, XviD, 2 555 Kbps
Аудио: AC3, 448 Kbps, 48.0 KHz, 6 ch

General
Complete name : Hulk.2003. BDRip.avi
Format : AVI
Format/Info : Audio Video Interleave
Format profile : OpenDML
File size : 2.91 GiB
Duration : 2h 18mn
Overall bit rate : 3 014 Kbps
Writing application : VirtualDubModRus 1.5.10.2 (build 2542/release)
Writing library : VirtualDubMod build 2542/release
Video
ID : 0
Format : MPEG-4 Visual
Format profile : Advanced [email protected]
Format settings, BVOP : Yes
Format settings, QPel : No
Format settings, GMC : No warppoints
Format settings, Matrix : Custom
Codec ID : XVID
Codec ID/Hint : XviD
Duration : 2h 18mn
Bit rate : 2 555 Kbps
Width : 704 pixels
Height : 384 pixels
Display aspect ratio : 16:9
Frame rate : 23.976 fps
Color space : YUV
Chroma subsampling : 4:2:0
Bit depth : 8 bits
Scan type : Progressive
Bits/(Pixel*Frame) : 0.394
Stream size : 2.47 GiB (85%)
Writing library : XviD 1.2.1 (UTC 2008-12-04)
Audio
ID : 1
Format : AC-3
Format/Info : Audio Coding 3
Mode extension : CM (complete main)
Codec ID : 2000
Duration : 2h 18mn
Bit rate mode : Constant
Bit rate : 448 Kbps
Channel(s) : 6 channels
Channel positions : Front: L C R, Side: L R, LFE
Sampling rate : 48.0 KHz
Bit depth : 16 bits
Stream size : 443 MiB (15%)
Alignment : Split accross interleaves
Interleave, duration : 42 ms (1.00 video frame)
Interleave, preload duration : 500 ms
-

☺ Если бы Халк действительно существовал, то он бы носил обувь 87 размера, его кожа была бы в 10 раз прочнее кевлара, а давление, создаваемое им на почву, составляло бы 14 тонн на квадратный дюйм!
☺ На роль Халка рассматривались кандидатуры Билли Крадапа, Джонни Деппа, Дэвида Духовны, Джеффа Голдблума, Тома Круза, Джорджа Клуни, Бена Аффлека и Стива Бушеми.
☺ Цифровые эффекты для фильма, значительная часть которого создана с применением технологии CGI, обеспечила компания Industrial Lights and Magic (ILM). Для очеловечивания Халка потребовалось создать 12 996 структурных чертежей, прорисовать 1 165 мускульных движений, задействовать 69 художников, 41 аниматора и 35 дизайнеров.
☺ Первое превращение Брюса в Халка происходит лишь на 42-ой минуте фильма.
☺ Показываемая в фильме гамма-сфера из лаборатории Брюса Баннера является реальным (и довольно сложным) оборудованием, используемым для проекта «ATLAS» Аргонской национальной лаборатории в Иллинойсе. Хотя к гамма-потокам этот прибор не имеет никакого отношения.
☺ Режиссер Энг Ли занял свое кресло в этой картине после того, как был отвергнут в роли режиссера фильма «Терминатор 3: Война машин».
☺ Поначалу композитором картины должен был стать Михаэль Дана, но затем его заменили на Дэнни Элфмана.
☺ Лу Ферриньо, играющий начальника охраны, в первых фильмах 1977-1990 гг. играл самого Халка.
☺ Съемки картины начались 18-го марта 2002 года в Аризоне, а в начале апреля переместились в Сан-Франциско. В августе 2002 года съемки были завершены.
☺ Сценарий несколько раз переписывался. Первоначальным его автором был Майкл Толкин. Его труды подправил Дэвид Хейтер. Затем последовала еще одна доработка, которую выполнил Джеймс Шамус (давний партнер Энга Ли, работавший с большинством его фильмов) – это случилось после того, как Энг Ли в сердцах заявил в одном из интервью, что выбросит к чертовой матери все сценарии «Universal» и сам напишет все, что требуется. Можно добавить, что на самом старте проекта в нем каким-то образом участвовал Майкл Фрэнкс, но о нем как о сценаристе впоследствии никто не упоминал.
☺ Для создания Халка, главного героя комикса, использовались компьютерные технологии, что создавало существенные проблемы живым актерам, которым приходилось разыгрывать сцены с пустым местом (на котором впоследствии появился искусственный персонаж). Чтобы им было легче ориентироваться, на съемочной площадке использовали картонный заменитель героя. В интервью «Vanity Fair» Дженнифер Коннелли пожаловалась, что никогда прежде не чувствовала себя так неуютно: «Я все время глядела на куски клейкой ленты на вырезанной картонке и понимала, что это ничто. Это было ужасно. Я никогда еще так не работала». Режиссер Энг Ли подтвердил, что такие затруднения в самом деле существовали, однако через неделю «картонных» тренировок Дженнифер сыграла с пустым местом так, как будто перед ней стоял живой человек.
☺ Впервые о предстоящих съемках «Халка» заговорили еще в феврале 2000 года. Тогда еще была надежда, что фильм будут выпускать в прокат в 2001 году. В середине 2000-го один осведомленный человек из «Marvel» заявил, что фильм должен выйти через два года. Через полгода, когда продюсеры начали переговоры с Энгом Ли, речь шла уже о 2003-м.
☺ Съемки этой картины проходили в самых различных местах страны: в национальном парке Моаб в штате Юта, в Аризоне и практически в каждом закоулке Калифорнии.
☺ Стэн Ли, глава компании «Marvel Group» так вспоминает историю появления Халка: «Когда я был моложе, мне очень нравились фильмы «Франкенштейн» с Борисом Карлоффом в роли монстра и «Доктор Джекил и мистер Хайд». И вот однажды мне в голову пришла мысль: а что если соединить персонажей обоих фильмов и создать героя, который бы превращался из обычного человека в монстра?». Впервые «Невероятный Халк» появился на свет в мае 1962 года в серии из шести комиксов, не оставив никакого следа в душах читателей. Два года спустя он вновь появился в альманахе «Удивительные истории» в качестве эпизодического персонажа в комиксе о Giant-Man. И его популярность пошла вверх, а «Удивительные истории» были переименованы в журнал «Невероятный Халк». К 1968 году рейтинг Халка оказался выше самого популярного героя компании – Человека-Паука. Серия о «Невероятном Халке» продержалась до 1999 года, когда вышел заключительный, 474-й выпуск. В 1977 г. канал CBS запустил довольно успешный телесериал с Биллом Биксби в роли Бэннера и культуристом Лу Ферриньо в роли Халка.
☺ В эпизодической роли охранника снялся один из создателей Халка – Стэн Ли.
☺ Картина создана на основе комиксов Стэна Ли и Джека Кирби.
☺ Халк придуман Стэном Ли и Джеком Кирби в 1962 году и впервые появился в комиксе The Incredible Hulk #1. Фильм не основан на определенном сюжете из комиксов.

Невероятный Халк / The Incredible Hulk«В гневе он Вам не понравится!»- Год выпуска: 2008
Страна: США
Жанр: фантастика, боевик
Продолжительность: 01:52:14
Перевод: Профессиональный (дублированный)-Режиссер:
Луи Летерье / Louis Leterrier
-В ролях:
Эдвард Нортон
Лив Тайлер
Тим Рот
Уильям Хёрт
Тим Блейк Нельсон
Тай Бурелл
Кристина Кэбот
Питер Менса
Лу Ферриньо
Пол Соулз ...
-Описание:
История доктора Брюса Баннера, который ищет лекарство от своего необычного «заболевания», превращающего его во время эмоционального стресса в гигантского зеленого монстра Халка. Находясь в бегах от армии, стремящейся его захватить, Брюс почти находит лекарство, но все старания идут прахом, когда у Халка вдруг появляется новый, невероятно сильный противник.
- -Бюджет: $150 000 000
Сборы в США: $134 806 913
Сборы в мире: + $127 534 788 = $262 341 701
Сборы в России: $6 421 500-Премьера (мир): 6 июня 2008
Премьера (РФ): 12 июня 2008
Релиз на DVD: 4 ноября 2008
Релиз на Blu-Ray: 16 декабря 2008-Качество: BDRip
Формат: AVI
Видео: 720x304 (2.35:1), 23.976 fps, XviD, 2 324 Kbps
Аудио: AC3, 448 Kbps, 48.0 KHz, 6 ch

General
Complete name : The Incredible Hulk.2008. BDRip.avi
Format : AVI
Format/Info : Audio Video Interleave
Format profile : OpenDML
File size : 2.18 GiB
Duration : 1h 52mn
Overall bit rate : 2 784 Kbps
Writing application : VirtualDubModRus 1.5.10.2 (build 2542/release)
Writing library : VirtualDubMod build 2542/release
Video
ID : 0
Format : MPEG-4 Visual
Format profile : Advanced [email protected]
Format settings, BVOP : Yes
Format settings, QPel : No
Format settings, GMC : No warppoints
Format settings, Matrix : Custom
Codec ID : XVID
Codec ID/Hint : XviD
Duration : 1h 52mn
Bit rate : 2 324 Kbps
Width : 720 pixels
Height : 304 pixels
Display aspect ratio : 2.35:1
Frame rate : 23.976 fps
Color space : YUV
Chroma subsampling : 4:2:0
Bit depth : 8 bits
Scan type : Progressive
Bits/(Pixel*Frame) : 0.443
Stream size : 1.82 GiB (83%)
Writing library : XviD 1.2.1 (UTC 2008-12-04)
Audio
ID : 1
Format : AC-3
Format/Info : Audio Coding 3
Mode extension : CM (complete main)
Codec ID : 2000
Duration : 1h 52mn
Bit rate mode : Constant
Bit rate : 448 Kbps
Channel(s) : 6 channels
Channel positions : Front: L C R, Side: L R, LFE
Sampling rate : 48.0 KHz
Bit depth : 16 bits
Stream size : 360 MiB (16%)
Alignment : Split accross interleaves
Interleave, duration : 42 ms (1.00 video frame)
Interleave, preload duration : 500 ms
-

☺ Получив полный контроль над экранизациями своих комиксов, студия Marvel смогла сделать то, о чем ее давно просили фэны, - сплести вместе фильмы о супергероях, знакомых друг с другом в исходных комиксах. Так, в «Невероятном Халке» будет небольшая роль у Роберта Дауни-младшего в образе Железного человека.
☺ В первом «Халке» заглавный герой мог увеличиваться в размере и достигать невероятной величины. В картине Леттерье от этого отказались. В полном соответствии с комиксом, Халк во второй картине примерно 2 метра 70 см. (9 футов) в высоту. Также он не похож на Эдварда Нортона, но на его лице есть шрам и родинка там же, где и у актера.
☺ Студия утверждает, что это не сиквел «Халка» 2003 года, а новая киноадаптация комикса от Marvel.
☺ Эдвард Нортон, известный тем, что часто переписывает сценарии картин, в которых снимается, и в этот раз принял участие в разработке сценария, отредактировав его под себя, в результате чего в картине появились новые персонажи.
☺ Все вооружение в фильме имеет бренд «Stark Industries», то есть компании Тони Старка, Железного человека — другого персонажа комиксов Marvel.
☺ Актер, играющий охранника, который пропускает Брюса Баннера за пиццу, также играл в фильме Халк 1977 года.
☺ Стэн Ли исполнил небольшую роль в фильме. Он сыграл человека, который выпил газировку с инфицированной кровью.
☺ В начале фильма Брюс Баннер (Эдвард Нортон) смотрит бразильское ТВ. В одном из фильмов - «The Courtship of Eddie»s Father'(1969) - мужчине дают пощечину. Это актер Билл Биксби, игравший Брюса Баннера в сериале «Невероятный Халк» (1978).
☺ По данному фильму была сделана одноименная игра.
☺ В оригинальных комиксах монстр носит фиолетовые штаны, вернее то что от них остается. Что интересно, когда Элизабет предлагает Брюсу надеть штаны фиолетового цвета, он отказывается, этот забавный момент объясняется тем, что в США одежду фиолетового цвета носят в основном представители сексуальных меньшинств.
☺ Основные съемки «Невероятного Халка» начались в июле 2007 года и продолжались 88 дней. Начали в Торонто, а закончили в ноябре в Рио-де-Жанейро.
☺ Халк впервые появился в комиксе «The Incredible Hulk» #1 (май 1962 г.).
Download / Скачать

Хотите скачать бесплатно? Зарегистрируйтесь на сайте (ссылка на регистрацию). Pirat.ca - самый быстрый торрент трекер в рунете!

Как скачивать  ·   Что такое торрент  ·   Рейтинг и ограничения

Пост 01-Мар-2012 23:39 (спустя 5 часов)

Топик был перенесен из форума Художественные фильмы (Зарубежное кино) в форум Зарубежное Кино

Skinwalker
 

Stalker

Морской Волк

Пост 02-Мар-2012 00:38 (спустя 6 часов)

[Q] 

Спасибо!!!Посмотрим ещё разок!!!
[Профиль]  [ЛС] 

jumpersky

Легенда

Пост 02-Мар-2012 00:59 (спустя 21 минута)

[Q] 

[Профиль]  [ЛС] 

yv6wB9G19oy1

Морской Волк

Пост 02-Мар-2012 07:23 (спустя 6 часов)

[Q] 


_________________
[Профиль]  [ЛС] 

GOLD_ROOT

Морской Волк

Пост 18-Апр-2012 21:38 (спустя 1 месяц 16 дней)

[Q] 


_________________
[Профиль]  [ЛС] 

SAva_red@

Корсар

Пост 08-Май-2012 23:56 (спустя 20 дней)

[Q] 

[Профиль]  [ЛС] 

Hord

Штурман

Пост 20-Май-2012 20:33 (спустя 11 дней)

[Q] 

Спасибо, первый фильм ели досмотрел до конца... Но все равно Спасибо)
[Профиль]  [ЛС] 

Minam

1030

Пост 28-Май-2012 01:25 (спустя 7 дней)

[Q] 

То, что доктор прописал.
[Профиль]  [ЛС] 

Крыгин Иван

Лоцман

Пост 28-Авг-2012 01:40 (спустя 3 месяца)

[Q] 

[Профиль]  [ЛС] 

Veyron_X

Шкипер

Пост 28-Сен-2012 20:01 (спустя 1 месяц)

[Q] 

[Профиль]  [ЛС] 

Дудинский

Шкипер

Пост 08-Янв-2013 11:33 (спустя 3 месяца 9 дней)

[Q] 

[Профиль]  [ЛС] 

okorm

889

Пост 24-Апр-2013 18:24 (спустя 3 месяца 16 дней)

[Q] 

[Профиль]  [ЛС] 

vodoleii

Шкипер

Пост 25-Май-2013 19:27 (спустя 1 месяц 1 день)

[Q] 

[Профиль]  [ЛС] 

Прораб

Легенда

Пост 12-Янв-2014 15:37 (спустя 7 месяцев 17 дней)

[Q] 

Спасибо! В коллекцию!

_________________
Config comp: CPU-i7-2600K/RAM-32Gb/GF580GTX-1536Mb/RAID0(2 SSD-480GB)+RAID5(8 HDD-20Tb)/Win7 64bit.
[Профиль]  [ЛС] 
Показать сообщения:    
Ответить на тему

Текущее время: Сегодня 16:17

Часовой пояс: GMT + 4



Вы не можете начинать темы
Вы не можете отвечать на сообщения
Вы не можете редактировать свои сообщения
Вы не можете удалять свои сообщения
Вы не можете голосовать в опросах
Вы не можете прикреплять файлы к сообщениям
Вы не можете скачивать файлы

▼ Вниз