ML
     
  Уважаемый Гость!
Вы можете поддержать проект и зарегистрироваться у наших партнеров - онлайн-стратегия MyLands. При регистрации в игре Вы получите код, который сможете активировать после регистрации на pirat.ca и получить 1000 дублонов.

Ваш код:
9cfe162481db953a6549f32179d7b3900b8b8643
 
     

Терминатор - Квадрология / Terminator - Quadrology (Джеймс Кэмерон / James Cameron, Джонатан Мостоу / Jonathan Mostow, МакДжи / McG) [1984 - 2009 гг., боевик, фантастика, BDRip]

Ответить на тему
 
Автор
Сообщение

Пост 07-Мар-2012 14:53

[Q] 

Kaper


Терминатор / The Terminator«Твое будущее в его руках»- Год выпуска: 1984
Страна: США, Великобритания
Жанр: фантастика, боевик
Продолжительность: 01:47:13
Перевод: Профессиональный (многоголосый закадровый) Киномания / Гемини Фильм / Карусель / ОРТ Селена Интернешнл / Первый канал Останкино / Позитив-Режиссер:
Джеймс Кэмерон / James Cameron
-В ролях:
Арнольд Шварценеггер
Майкл Бин
Линда Хэмилтон
Пол Уинфилд
Лэнс Хенриксен
Бесс Мотта
Эрл Боэн
Рик Россович
Дик Миллер
Шоун Шеппс ...
-Описание:
В центре сюжета — противостояние солдата Кайла Риза и киборга-терминатора, прибывших в 1984-ый год из пост-апокалиптического будущего, где миром правят машины-убийцы, а человечество находится на грани вымирания. Цель киборга: убить девушку по имени Сара Коннор, чей ещё нерождённый сын к 2029 году выиграет войну человечества с машинами. Цель солдата Кайла Риза: спасти Сару и остановить Терминатора любой ценой.
- -Бюджет: $6 400 000
Сборы в США: $38 371 200
Сборы в мире: + $40 000 000 = $78 371 200-Премьера (мир): 26 октября 1984
Релиз на DVD: 28 августа 2008-Качество: BDRip
Формат: AVI
Видео: 704x384 (2.35:1), 23.976 fps, XviD, 2454 Kbps
Аудио#1: AC3, 448 Kbps, 48.0 KHz, 6 ch - Киномания
Аудио#2: AC3, 448 Kbps, 48.0 KHz, 6 ch - Гемини Фильм [отдельно]
Аудио#3: AC3, 448 Kbps, 48.0 KHz, 6 ch - Карусель [отдельно]
Аудио#4: AC3, 448 Kbps, 48.0 KHz, 6 ch - ОРТ Селена Интернешнл [отдельно]
Аудио#5: AC3, 448 Kbps, 48.0 KHz, 6 ch - Первый канал Останкино [отдельно]
Аудио#6: AC3, 448 Kbps, 48.0 KHz, 6 ch - Позитив [отдельно]

Формат : AVI
Формат/Информация : Audio Video Interleave
Профиль формата : OpenDML
Размер файла : 2,18 Гбайт
Продолжительность : 1 ч. 47 м.
Общий поток : 2914 Кбит/сек
Программа кодирования : VirtualDubModRus 1.5.10.2 (build 2542/release)
Библиотека кодирования : VirtualDubMod build 2542/release
Видео
Идентификатор : 0
Формат : MPEG-4 Visual
Профиль формата : Advanced [email protected]
Параметр BVOP формата : 1
Параметр QPel формата : Нет
Параметр GMC формата : Без точки перехода
Параметр матрицы формата : Выборочная
Идентификатор кодека : XVID
Идентификатор кодека/Подсказка : XviD
Продолжительность : 1 ч. 47 м.
Битрейт : 2454 Кбит/сек
Ширина : 704 пикселя
Высота : 384 пикселя
Соотношение сторон : 16:9
Частота кадров : 23,976 кадра/сек
Цветовое пространство : YUV
Субдискретизация насыщенности : 4:2:0
Битовая глубина : 8 бит
Тип развёртки : Прогрессивная
Метод сжатия : С потерями
Бит/(Пиксели*Кадры) : 0.379
Размер потока : 1,84 Гбайт (84%)
Библиотека кодирования : XviD 1.2.1 (UTC 2008-12-04)
Аудио
Идентификатор : 1
Формат : AC-3
Формат/Информация : Audio Coding 3
Расширение режима : CM (complete main)
Идентификатор кодека : 2000
Продолжительность : 1 ч. 47 м.
Вид битрейта : Постоянный
Битрейт : 448 Кбит/сек
Каналы : 6 каналов
Расположение каналов : Front: L C R, Side: L R, LFE
Частота : 48,0 КГц
Битовая глубина : 16 бит
Метод сжатия : С потерями
Размер потока : 344 Мбайт (15%)
Выравнивание : Разделение по промежуткам
Продолжительность промежутка : 42 мс. (1,00 видеокадр)
Время предзагрузки промежутка : 500 мс.
-

O О. Джей Симпсон мог исполнить роль Терминатора, но продюсеры отклонили его кандидатуру, т.к. по их мнению, у него «слишком дружелюбная внешность» для того, чтобы зрители могли воспринимать его всерьёз в качестве хладнокровного убийцы.
O Герой Майкла Бьена ходит раненый в руку во всех фильмах режиссера — в «Терминаторе» (1984), «Чужих» (1986) и «Бездне» (1989).
O Джеймс Камерон продал первый вариант сценария своей жене, Гэйл Энн Херд, за один доллар США.
O В сценарной заявке к фильму говорилось о том, что Терминатор должен был время от времени есть, для того чтобы его человеческая плоть не разрушалась. Также была сцена, в которой Терминатор ест шоколадку.
O Майкл Бьен мог не сыграть в этом фильме. Дело в том, что во время кастинга он говорил с южным акцентом, а продюсеры не хотели, чтобы по акценту Риза можно было определить его место рождения. Но после продолжительных переговоров актер всё-таки получил роль в фильме.
O Арнольд Шварценеггер говорит в 18 сценах фильма. Своим голосом Арнольд говорит в 16 сценах, произнеся 17 предложений. Также в одной сцене Терминатор говорит голосом офицера полиции, а в другой — голосом матери Сары.
O Когда Риз спасает Сару во время перестрелки в ночном клубе, он говорит ей: «Пойдем со мной, если хочешь жить». Примечательно, что Терминатор говорит точно такую же фразу, когда он спасает Сару в «Терминатор 2: Судный день» (1991)
O Начало съёмок фильма была отложено на девять месяцев из-за затянувшегося производственного процесса «Конана Разрушителя» (1984), где Арнольд Шварценеггер играл главную роль. Чтобы не терять времени даром, Джеймс Камерон поначалу хотел поставить еще один фильм, но отказался от этой идеи, т.к. для производства полноценного фильма у него было слишком мало времени. Поэтому он решил написать сценарий, который впоследствии превратился в сценарий к «Чужим» (1986).
O Джо Фараго, сыгравший репортера, рассказывающего об убийствах женщин под именем Сара Коннер, исполнил такую же роль в другом фильме Джеймса Камерона — «Бездна» (1989)
O Незадолго до начала съёмок Линда Хэмилтон сломала лодыжку, поэтому для съёмок экшн-сцен ей приходилось туго забинтовывать ногу.
O Именно в этом фильме Арнольд Шварценеггер в первый раз произносит свою коронную фразу «Я вернусь». Однако, первоначально на английском языке данная фраза звучала несколько по-другому — «I`ll come back», вместо «I`ll be back».
O Декорациями для ночного клуба «TechNoir» послужил реально существующий ресторан в центре Лос-Анджелесе, который специально «загримировали» для съёмок фильма.
O Хотя в 1984 уже можно было снимать фильмы в стереофоническом звуке, «Терминатор» был сделан с использованием монофонического звука. Создатели были вынуждены пойти на такие меры из-за бюджетных ограничений.
O Харлан Эллисон подал в суд на Джеймса Камерона, обвинив последнего в том, что Камерон использовал его идеи из двух эпизодов для «The Outer Limits» (1963) — «Солдат» (Soldier) и «Демон со стеклянной рукой» (Demon with a Glass Hand), автором сценария которых был Эллисон. Также концепция «Скайнета» могла быть позаимствована из рассказа Эллисона «У меня нет рта и я должен кричать» (I Have No Mouth and I Must Scream). Продюсеры фильма решили урегулировать спор без судебного разбирательства: при выходе фильма на видео Эллисон был указан, как один из авторов сюжета.
O Однажды, во время перерыва на съёмках, Арнольд Шварценеггер пошел в один из ресторанов пообедать, и только в ресторане он понял, что с него забыли снять грим Терминатора, который включал в себя отсутствующий глаз, сломанную челюсть и обожженную кожу.
O По версии American Film Institute фраза «Я вернусь» заняла 37 место в списке «100 лучших цитат из художественных фильмов».
O Изначально роль Терминатора предназначалась Ленсу Хенриксону. Джеймс Камерон даже создал несколько набросков, показывающих Терминатора с внешностью Хэнриксона. Однако, по настоянию продюсеров роль Терминатора сыграл Арнольд Шварценеггер. Хэнриксон сыграл в фильме детектива Вуковича.
O Эдвард Джемс Олмос мог исполнить роль лейтенанта Тракслера.
O Марка солнечных очков, которые носил Терминатор, — Gargoyles.
O Роль Терминатора, расстреливающего людей в человеческом лагере, исполнил Франко Коламбу. Франко Коламбу — неоднократный обладатель титула «Мистер Олимпиа», а также близкий друг Арнольда Шварценеггера.
O Джеймс Камерон придумал концепцию «Терминатора», находясь в Европе. Первоначально предполагалось, что Терминатор будет хамелеоном, легко трансформирующимся в других людей; а действие фильма почти целиком будет происходить в будущем. Однако, с одной стороны, на тот момент не было технологий, способных воплотить фантазии Камерона в реальность, с другой — на проект был выделен весьма скромный бюджет. Поэтому режиссеру пришлось перенести место действия фильма из будущего в настоящее, и отказаться от идеи использования «жидкого» Терминатора.
O Когда Сара проверяет сообщения на своем автоответчике, то в одном из них мужчина говорит о том, что он не сможет встретиться с Сарой. Данный голос принадлежит Джеймсу Камерону.
O Единственная сцена, в которой мы видим Майкла Бьена и Арнольда Шварценеггера в одном кадре, — сцена перестрелки в ночном клубе, точнее, момент, в котором Кайл во второй раз стреляет в Терминатора.
O Большинство автомобильных погонь снималось на нормальной скорости, а затем при монтаже их скорость несколько увеличили.
O Известнейший металлический звон из главной музыкальной темы к фильму был создан Брэдом Фиделем, стучащим по микрофону чугунной сковородкой.
O В ранних версиях сценария была сцена, в которой Сара узнает адрес компании «Кибердайн Системс», после чего она и Кайл отправляются в Саннивэйл, Калифорния, для того чтобы взорвать здание компании.
O Сцена, в которой один из служащих «Кибердайн Систем» находит микропроцессор Терминатора, была снята, но не вошла в финальный вариант картины. Данную сцену можно найти в разделе «Удаленные сцены» на специальном издании DVD.
O Количество трупов — 40: тридцать полицейских в полицейском участке; Кайл Риз; три панка; первые две Сары Коннер; водитель грузовика; подруга Сары и её бойфренд; и, конечно же, сам Терминатор.
O Игрушечный грузовичок, который Терминатор раздавливает колесом своей машины - это миниатюрная копия грузовика, на котором в «Терминаторе 2» Т-1000 гонится за мопедом Джона Коннора.
O Фотографии, фигурирующие в фильме, были сделаны фотографом ДжоДжо Вилденом (Jo Jo Whilden).
O Для создании музыки Бред Фидел использовал 10-голосовой синтезатор «Prophet 10», которые после 1980 года перестали выпускать.
O Саундтрек к «Терминатору» писался на самой продвинутой в те годы звукозаписывающей студии «Glen Glenn Sound», основанной ветераном звукорежиссуры Гленом Гленном. Несмотря на отдельные цифровые спецэффекты и электронную музыку, для записи использовалась традиционная аналоговая технология, и фильм в прокат был выпущен с моно-дорожкой.
O Взрыв цистерны снимался в студии с помощью уменьшенной радиоуправляемой копии грузовика. Эффект реальности происходящего создавался ускоренной съемкой. Убегающая же от взрыва Сара и вовсе была добавлена уже потом с помощью рир-проекции, когда в темной студии на огромный экран проецировались заранее снятые кадры взрыва грузовика, а камера снимала на фоне этого экрана бегущую Линду Хэмилтон.
O Чтобы не брать в аренду дорогую операторскую тележку («dolly»), оператор Эдам Гринберг импровизировал «съемки с тележки», сев со своей ручной камерой в инвалидную коляску, которую толкали с большой скоростью.
O В сцене, когда Кайл спрашивает у полицейского, какой сегодня день, тот отвечает, что «12 мая, четверг». Такой день недели соответствует 1983 году, а не 1984-му, как указано в титрах.

Терминатор 2: Судный день [Скайнет версия] / Terminator 2: Judgment Day [Skynet Edition] «То же самое дело. Та же самая модель. Новая миссия.»- Год выпуска: 1991
Страна: США, Франция
Жанр: фантастика, боевик
Продолжительность: 02:36:08
Перевод: Профессиональный (многоголосый закадровый) Киномания / Позитив-Режиссер:
Джеймс Кэмерон / James Cameron
-В ролях:
Арнольд Шварценеггер
Линда Хэмилтон
Эдвард Ферлонг
Роберт Патрик
Эрл Боэн
Джо Мортон
С. Эпата Меркерсон
Кастуло Герра
Дэнни Кукси
Дженетт Голдстин ...
-Описание:
Прошло более десяти лет с тех пор, как киборг-терминатор из 2029 года пытался уничтожить Сару Коннор — женщину, чей будущий сын выиграет войну человечества против машин.Теперь у Сары родился сын Джон и время, когда он поведёт за собой выживших людей на борьбу с машинами, неумолимо приближается. Именно в этот момент из постапокалиптического будущего прибывает новый терминатор — практически неуязвимый и способный принимать любое обличье. Цель нового терминатора уже не Сара, а уничтожение молодого Джона Коннора.Однако шансы Джона на спасение существенно повышаются, когда на помощь приходит перепрограммированный сопротивлением терминатор предыдущего поколения. Оба киборга вступают в смертельный бой, от исхода которого зависит судьба человечества.
- Доп. информация:
Самая длинная версия фильма !!!
- -Бюджет: $102 000 000
Сборы в США: $204 843 345
Сборы в мире: + $315 000 000 = $519 843 345-Премьера (мир): 1 июля 1991
Релиз на DVD: 1 сентября 2009-Качество: BDRip
Формат: AVI
Видео: 720x304 (2.35:1), 23.976 fps, XviD, 2210 Kbps
Аудиоя#1: AC3, 448 Kbps, 48.0 KHz, 6 ch - Киномания
Аудио#2: AC3, 448 Kbps, 48.0 KHz, 6 ch - Позитив [отдельно]

Формат : AVI
Формат/Информация : Audio Video Interleave
Профиль формата : OpenDML
Размер файла : 2,91 Гбайт
Продолжительность : 2 ч. 36 м.
Общий поток : 2668 Кбит/сек
Программа кодирования : VirtualDubMod 1.5.10.2 (build 2542/release)
Библиотека кодирования : VirtualDubMod build 2542/release
Видео
Идентификатор : 0
Формат : MPEG-4 Visual
Профиль формата : Advanced [email protected]
Параметр BVOP формата : 1
Параметр QPel формата : Нет
Параметр GMC формата : Без точки перехода
Параметр матрицы формата : Выборочная
Идентификатор кодека : XVID
Идентификатор кодека/Подсказка : XviD
Продолжительность : 2 ч. 36 м.
Битрейт : 2210 Кбит/сек
Ширина : 720 пикселей
Высота : 304 пикселя
Соотношение сторон : 2,35:1
Частота кадров : 23,976 кадра/сек
Цветовое пространство : YUV
Субдискретизация насыщенности : 4:2:0
Битовая глубина : 8 бит
Тип развёртки : Прогрессивная
Метод сжатия : С потерями
Бит/(Пиксели*Кадры) : 0.421
Размер потока : 2,41 Гбайт (83%)
Библиотека кодирования : XviD 1.2.1 (UTC 2008-12-04)
Аудио
Идентификатор : 1
Формат : AC-3
Формат/Информация : Audio Coding 3
Расширение режима : CM (complete main)
Идентификатор кодека : 2000
Продолжительность : 2 ч. 36 м.
Вид битрейта : Постоянный
Битрейт : 448 Кбит/сек
Каналы : 6 каналов
Расположение каналов : Front: L C R, Side: L R, LFE
Частота : 48,0 КГц
Битовая глубина : 16 бит
Метод сжатия : С потерями
Размер потока : 500 Мбайт (17%)
Выравнивание : Разделение по промежуткам
Продолжительность промежутка : 42 мс. (1,00 видеокадр)
Время предзагрузки промежутка : 500 мс.
-

☺ Арнольд Шварценеггер получил за исполнение главной роли кинокартины гонорар размером в 12 миллионов долларов. За весь фильм он произнес около 700 слов. Таким образом, каждое слово, вылетевшее из уст будущего губернатора Калифорнии, было оценено в 17,143 доллара.
☺ Многие зрители помнят эпизод разрезания собственной руки героем Шварценеггера, но мало кто знает, что в окончательную версию фильма вошли далеко не все отснятые кадры этой сцены. Особенно жестокие из них были удалены.
☺ При подготовке к съемкам исполнительница роли Сары Коннор, Линда Гамильтон, прошла военную спецподготовку под руководством бывшего израильского спецназовца Узи Гала.
☺ При работе над картиной команда по спецэффектам учла травму Роберта Патрика, исполнившего роль киборга T1000. Играя в футбол, актер серьезно травмировал ногу, после чего стал слегка прихрамывать. Раз хромает актер, то пусть походка станет неровной и у Терминатора — решили мастера компьютерной графики.
☺ В фильме роль Сары Коннор исполнила не только Линда Гамильтон. Её родная сестра-близнец Лесли Гамильтон была задействована в сцене на сталеплавильном заводе, и сыграла Сару Коннор, сымитированную Терминатором Т1000. Также Лесли была задействована в эпизоде с зеркалом (эту сцену посчастливилось увидеть лишь обладателям расширенной версии фильма, вышедшей на DVD).
☺ Братья-близнецы Дон и Дэн Стэнтоны были привлечены к съёмке сцены в госпитале. Один из них сыграл охранника больницы, а второй — скопировавшего его Терминатора T1000.
☺ Практически все реплики Эдварда Ферлонга, исполнившего роль Джона Коннора, при монтажных работах пришлось перезаписывать. Юноше на момент съемок было 13 лет, и его голос, как и у многих подростков в этом возрасте, переживал существенные видоизменения. Единственной сценой, не подвергнутой переозвучке, осталась та, в ходе которой Джон объясняет Терминатору T800 причину, по которой люди плачут.
☺ Кроме того, Эдвард поменялся и визуально. Если внимательно присмотреться, то можно заметить, что в пустыне он выглядит намного моложе, чем в остальных сценах.
☺ При работе над картиной к производству были привлечены сразу три специалиста монтажа. Данное обстоятельство было обусловлено жесткими сроками производства. В итоге, каждый представитель троицы работал над своим отдельным куском картины, и уже позднее эти куски сращивались между собой.
☺ В решающей схватке двух киборгов, съемочная площадка была обита резиной для того, чтобы актеры (Шварценеггер и Патрик) не покалечились в ходе съемок.
☺ Поначалу для создания спецэффектов, связанных с жизнедеятельностью киборга Т1000, планировалось привлечь команду в составе 6 человек. Однако впоследствии бригада увеличилась до 36 человек. Из 137 минут экранного времени около трех минут занимают плоды стараний этой группы специалистов.
☺ Арнольд Шварценеггер во время съемок картины дал обещание, что больше никогда не сыграет злодея. Однако в 1997 году актер нарушил его, сыграв Мистера Фриза в фильме «Бэтмэн и Робин».
☺ Джеймс Кемерон пытался выдвинуть Линду Гамильтон в номинанты церемонии вручения наград Американской Киноакадемии за лучшую женскую роль, но академики остались иного мнения.
☺ До 2003 года старт картины в кинопрокате США среди картин с рейтингом R считался самым успешным (52,300,000 долларов США). До тех пор, пока не вышел фильм «Матрица: Перезагрузка».
☺ Эдвард Ферлонг был выбран среди сотен кандидатов на исполнение роли Джона Коннора. Интересно, что на кастинг его пригласили, заметив в очереди на входе в клуб.
☺ По первоначальной задумке на роль Т1000 планировалось пригласить Майкла Бьена, исполнившего главную роль в первом фильме. Таким образом, они как бы поменялись амплуа с Арнольдом (злодей первого фильма становится хорошим, и наоборот). Но вскоре продюсеры были вынуждены отказаться от этой идеи, дабы не смущать зрителей.
☺ Джеймс Камерон попросил Стэна Уинстона (создателя спецэффектов) срежиссировать тизер-трейлер. Камерон не хотел, чтобы тизер включал в себя лишь кадры из фильма. Получив $ 150.000, Уинстон создал ролик, в котором показывалась сборка Терминатора (модель Арни) на футуристическом заводе.
☺ Потребовалось два дубля для съёмок сцены, в которой минивэн въезжает в холл здания компании «Кибердайн Системс».
☺ Название взрывчатки (polydichloric euthimal), используемой для взрыва здания компании «Кибердайн Системс», точно такое же, как название наркотика в «Чужой земле» (1981).
☺В одной из сцен Терминатор говорит: «Мне нужен отпуск». Точно такую же фразу Арнольд Шварценеггер говорит в «Детсадовском полицейском» (1990). Данная фраза отсутствовала в сценарии и является импровизацией актера.
☺ Т-1000 говорит пилоту вертолета: «Выходи!» (Get out!). В первом фильме при схожих обстоятельствах Терминатор говорит точно такую же фразу водителю грузовика.
☺ На полицейском жетоне Т-1000 написано «Остин» (Austin). Такое же имя у продюсера фильма Стефани Остин и у дочери Роберта Патрика.
☺ Известнейший металлический звон из главной музыкальной темы к фильму был создан Брэдом Фиделем, стучащим по микрофону чугунной сковородкой.
☺ В качества звука стрельбы из дробовика был использован звук стрельбы из двух пушек.
☺ Линда Хэмилтон на самом деле научилась открывать замки при помощи скрепки для бумаг.
☺ Одиннадцать камер было использовано для съёмок взрыва здания компании «Кибердайн Системс».
☺ Сцену падения вертолета на шоссе сняли только с третьего дубля.
☺ После каждого дубля требовалась два дня на то, чтобы отстроить заново миниатюрную модель Лос-Анджелеса.
☺ Сцена, показывающая лабораторию, в которой содержалась машина времени, так и не была снята, т.к. постройка декораций заняла бы слишком много времени, вдобавок, данная сцена не являлась столь важной для развития сюжета. Наброски и черновики для этой сцены в дальнейшем были использованы при создании устройства путешествия в пространстве в фильме «Контакт» (1997).
☺ Жители района Лэйквью Террас организовали акцию протеста снаружи медицинского центра, когда его название изменили на «Государственный госпиталь Паскадеро для психически больных преступников». Правда, акция протеста была сразу же прекращена, после того как митингующие узнали, что госпиталь был переименован только лишь на время съёмок фильма.
☺ Пять часов требовалось, для того чтобы наложить грим Терминатора (как он выглядит в концовке фильма) и еще один час, для того чтобы его снять.
☺ В сцене, где Джон «взламывает» банкомат, он использует лэптоп «Atari Portfolio».
☺ Сцену «принудительного лечения» (которую можно найти на специальном издании DVD) снимали несколько раз. Момент, когда Кен Гиббел бьет дубинкой Линду Хэмилтон, также потребовал множество дублей. В некоторых из них Гиббел, конечно же, не специально наносил настоящие удары по телу Хэмилтон. Линда отомстила ему позднее: в сцене, где Сара бьет Дугласа обломком швабры, удары были настоящие.
☺ Одно время у Камерона была собака под кличкой Волчонок (в сцене, где Т800 разговаривает с Т1000 в облике мачехи Джона, он задаёт вопрос «Что там с Вулфи, я слышу как он лает». Собаку же на самом деле звали Max).
☺ У Т-1000 должно быть, по меньшей мере, три руки, когда он управляет вертолетом и одновременно ведет огонь по минивэну.
☺ Дата судного дня — 29 августа 1997 года. Примечательно, что 29 августа 1949 года Советский Союз провел испытание своей первой атомной бомбы.
☺ Видеоигра, в которую играет Джон в «Галерее» — «Missile Command». В данной игре игрок должен остановить ракеты с ядерными боеголовками до того, как они достигнут цели.
☺ Приемных родителей Джона зовут Тодд и Джанель Войт. Это означает, что если Джон решил бы взять их фамилию, то его бы звали Джон Войт (известный актер, отец Анджелины Джоли).
☺ Турист, фотографирующий Терминатора в торговом центре, — Уильям Уишер младший, соавтор сценария фильма.
☺ Арнольд Шварценеггер предпочел получить свой гонорар не в денежной, а натуральной форме: в качестве гонорара он получил самолет «Gulfstream III».
☺ Полное название Терминатора — «Терминатор серии 800 (внутренний металлический скелет) модель 101 (живая плоть поверх металлического скелета)».
☺ Звук, который можно услышать при трансформации Т-1000, был создан следующим образом: на микрофон надевали презерватив, после чего данную конструкцию погружали в овсяную кашу.
☺ Миниган, используемый в фильме, был настолько тяжел, что единственным человеком на съёмочной площадке, который мог его поднять, был Арнольд Шварценеггер.
☺ Джоэль Крамер, постановщик трюков, исполнил роль-камео в фильме: он сыграл одного из охранников в больнице.
☺ Стэн Уинстон и его команда по спецэффектам потратили немало часов на просмотр документальной хроники, посвященной ядерным взрывам. После того как фильм вышел на экраны, несколько членов «Федеральной лаборатории по испытанию атомного оружия» неофициально признали, что в данной картине содержится наиболее точное изображение ядерного взрыва, когда-либо показанного в художественных фильмах.
☺ Известная фраза «Hasta la Vista, Baby» в дублированной испанской версии была переведена, как «Sayonara, Baby».
☺ В сцене на заправке можно заметить вывеску «Benthic Petroleum». Компании «Benthic Petroleum» принадлежала подводная буровая станция в «Бездне» (1989), режиссером которой также является Джеймс Камерон.
☺ Компьютерные эффекты трансформации Т-1000 создавались на графических станциях «Silicon Graphics IRIS Indigo».
☺ Когда Джон и Терминатор спасают Сару из больницы, Терминатор говорит Саре: «Пойдем со мной, если хочешь жить». В первом фильме Риз говорит Саре точно такую же фразу во время перестрелки в ночном клубе.
☺ Не смотря на огромное количество экшн-сцен, в фильме погибают всего шестнадцать (максимум) человек: три солдата, водитель бронированного джипа и стрелок, полицейский, служащий торгового центра, водитель грузовика, Тод и Джанель Войт, полицейский на мотоцикле, Майлс Беннетт Дайсон, и водитель цистерны с жидким азотом. Нам не известно, погибли ли пилот вертолета и водитель пикапа (каждый из них спрыгивает с большой высоты). Т-1000 прямо или косвенно ответственен за большинство смертей.
☺ Арнольд Шварценеггер согласился сниматься в фильме при условии, что его персонаж никого не убьет.
☺ В режиссерской версии фильма содержится множество новых сцен, не вошедших в обычную версию. Вот некоторые из них:
1) Саре Коннер снится сон, в котором появляется Кайл Риз. Он говорит Саре, что их сын в опасности, и она должна спасти его. Они целуются. Сара просыпается. Это единственная сцена с участием Майкла Бьена. Данная сцена присутствовала в нескольких рекламных роликах фильма. Камерон вырезал эту сцену, т.к. по его мнению, зрителям, не смотревшим первую часть, будет совершенно не понятно, кто такой Кайл.
2) Другая сцена в госпитале, которая следует сразу же после того, как доктор Сильберманн показывает Сару студентам. Доктор говорит санитарам, чтобы они убедились в том, что Сара приняла лекарства. Удаленная сцена начинается тогда, когда два санитара входят в палату Сары. Сначала они несколько раз бьют её дубинками, после чего силой заставляют принять таблетки. Затем они еще несколько раз бьют скрючившуюся от боли Сару.
3) После того как Т-1000 убивает приемных родителей Джона, он выходит во двор, подходит к собаке, убивает её и срывает с неё ошейник. На ошейнике написано имя собаки — Макс. Т-1000 понимает, что его одурачили, т.к. незадолго до этого в телефонном разговоре Джон называет собаку Волчонок.
4) После убийства собаки, Т-1000 идет в комнату Джона и пытается найти что-нибудь, что могло ему подсказать, где может быть Джон. Он ходит по комнате, ощупывает руками предметы на полках и стенах, как бы «чувствуя» их. В конце концов, он останавливается возле постера, внимательно смотрит на него, понимает, что за ним есть что-то еще, срывает его и находит ящик, в котором лежат фотографии и памятные для Джона вещи. Скорее всего, с помощью этих вещей Т-1000 узнает о месте в пустыне, куда направились Сара, Джон и Терминатор. Джеймс Камерон решил вырезать данную сцену из-за того, что у зрителей могло сложиться впечатления, что Т-1000 использует «рентгеновское зрение».
5) На заброшенной бензоколонке Сара и Джон разговаривают с Терминатором о том, может ли он учиться. Терминатор говорит им, что его микропроцессор переключен в положение «только для чтения». Скайнет не хотел, чтобы Терминаторы могли самостоятельно эволюционировать. Джон спрашивает Терминатора — можно ли переключить процессор. Терминатор отвечает — да. После этого, мы видим Терминатора, рассказывающего Саре, что нужно делать, для того чтобы добраться до процессора. После того, как Саре удается достать процессор, Терминатор отключается. Сара кладет процессор на стол, берет молоток и пытается разбить его, но Джон мешает ей сделать это. Он убеждает её, что они нуждаются в Терминаторе. Именно здесь мы видим у Джона задатки будущего лидера. Он говорит Саре: «Как же я смогу быть мировым лидером, если даже моя собственная мать не желает меня слушать?»
6) Оригинальная концовка фильма. 2029 год. Детская площадка. Сара смотрит, как Джон играет со своей дочкой. Из её монолога мы узнаем, что не было никакой войны между машинами и людьми, а её сын стал сенатором.
7) Когда две девочки сообщают Т-1000, что Джон поехал в «Галерею», Т-1000 спрашивает, где она находится, и девочек его незнание очевидных для них вещей веселит - они хихикают. Это заставляет Т-1000 оправдываться: 'Я здесь, типа, новенький...'
8) Когда Т-1000 в образе охранника больницы Льюиса тащит труп настоящего Льюиса в кладовку, медсестра спрашивает его: «Что там, Льюис?» - «Да так, мусор всякий» - отвечает он. Она продолжает что-то печатать, и Т-1000 спокойно дотаскивает труп до кладовки, где отбирает у него ключи и пистолет.
9) Когда Т-1000 подходит к палате Сары, он видит в окошке санитара Дагласа с разбитой физиономией, а тот, видя охранника, кричит, что «чертова {мат}» Сара сбежала и требует его освободить. Т-1000 это требование, конечно, игнорирует и идет дальше.
10) Чуть более расширенный диалог в машине во время бегства из Пескадеро. Сара спрашивает, можно ли уничтожить Т-1000, и Терминатор отвечает: «Неизвестно» (этот эпизод вошел в один из трейлеров фильма).
11) Чтобы проехать на территорию больницы, Т-800 стреляет в охранника и открывает ворота. Когда машина проезжает мимо раненного охранника, Джон говорит ему: 'Простите...'
12) Финальный диалог Т-800 и Джона был чуть шире. В ответ на просьбу остаться Терминатор сказал ему: 'Это должно закончиться здесь. Или я - будущее...'
☺ Сцены, которые были в сценарии, но не были сняты:
1) Разговор Кайла Риза и Джона.
2) Сару пытают с помощью электрошоковой терапии.
3) Изучив фотографии в комнате Джона, Т-1000 приходит к выводу, что после бегства из больницы, Джон сбежал в пустыню. Т-1000 отправляется следом. При приближении киборга, собака Салкеды начинает лаять, и тот выбегает с оружием, пытаясь стрелять в Т-1000, но промахивается. Т-1000 использует свой палец, превращающийся в лезвие, и, проткнув плечо Салкеды, спрашивает: «Где Джон Коннор?» Салкеда «посылает» Т-1000, его рука шарит по земле, и рядом с какими-то ящиками он находит гранаты. Он взрывает себя и надеется, что убивает Т-1000. У Т-1000 сносит голову, но потом она возвращается на место через ботинок - как в эпизоде побега из больницы. Иоланда видит все это и обнимает ребенка, когда приближается Т-1000. Он поднимает ребенка и получает информацию от нее о том, куда уехал Джон и все остальные.
4) Ранчо Ганта. Эта часть упоминает о Трэвисе Ганте, «сумасшедшем бывшем зеленом берете», которого Джон помнит еще до того, как его мать была поймана. После того, как Сара, Джон и Т-800 сбежали, Т-1000, замаскировавшись под любовницу Ганта, легко подбирается к нему и получает ответы на все вопросы, после чего убивает его.
5) Видение Дайсона. Дайсону перед тем, как он умер и привел в действие детонатор, привиделась его семья перед тем, как ядерный взрыв превратил все в пепел. Он видит, как бежит его семья, а затем – солнце. Методом морфинга оно превращается в глаз умирающего Дайсона, который закрывается, и Дайсон активирует детонатор.
☺ На съемки картины было израсходовано около 300 км кинопленки.
☺ В записи предсмертных криков терминатора Т1000 был использован голос самого Джеймса Кемерона.
☺ В ходе съемок было использовано около 200 различных видов оружия.
☺ В фильме использовано около 300 спецэффектов, занимающих примерно 16 минут от общего хронометража картины.
☺ Это первая картина в истории кинематографа, бюджет которой составил 100 миллионов долларов.
☺ Группа Scooter позаимствовала из фильма главную музыкальную тему в песне «The age of love»
☺ Полный вариант имеет хронометраж 154 минуты.
☺ Для создания компьютерной модели Т-1000 Роберта Патрика на протяжении 3-х дней в голом виде снимали специальным трехмерным сканером, в результате чего он заработал себе бронхит.
☺ По словам Кэмерона, «некоторые учёные» поблагодарили его за сцену, где Сара видит сон, в котором умирает от ядерного взрыва. Они сказали, что это было «самое правдоподобное» изображение ядерного взрыва, когда-либо показанное в кино.
☺ Когда Т-800 швыряет байкера, под тем можно заметить механический трамплин.
☺ Внимательно посмотрите сцену, когда Т-800 срезает себе мясо с руки. Настоящая рука актера спрятана под одеждой в районе желудка. Когда его рука раздавливается шестеренкой, настоящая конечность спрятана в рукаве черного цвета под кожаной курткой. На ней даже можно разглядеть контуры часов.
☺ Сара опускает Т-800, нажав кнопку «Вверх».
☺ Сцена с ядерным взрывом считается одним из самых точных воспроизведений этого события на экране. Однако обратите внимание, что ударная волна, сдувающая даже мясо с костей, совершенно не действует на маленькую лошадку.
☺ В очках Дайсона, попавшего под прицел Сары, отражается свет от камеры.
☺ Судя по часам Джона, он отговаривал свою мать от убийства Дайсона почти полтора часа (с 10:35 до 12:00).
☺ Когда Т-800 появляется из временного портала, на его теле видны волосы. В следующем кадре он уже гладко выбрит.
☺ Сара просит о свидании с сыном и говорит доктору, что хорошо вела себя уже шесть месяцев. Тот соглашается. Чуть ранее он сообщает студентам, что Сара проткнула его колено ручкой три недели назад.
☺ Номера машины, на которой Сара и Джон уехали из психиатрической клинике, меняются 6 (!) раз.
☺ Молодой сотрудник Кибердайн Системс, который пристает с расспросами к Дайсону, носит майку с гербом РФ и надписью «Когда была свободна Русь, то три копейки стоил гусь».
☺ В одной из сцен T-1000 преследует Джона Коннора на грузовике 1987 Freightliner FLA9642T.
☺ Герой Шварценеггера (Т-800) расстреливает полицейские машины из гранатомёта «Blooper» M79.
☺ Первоначально в сцене погони в каналах Кэмерон хотел, чтобы грузовик был капотный – он выглядит более зрелищно. Так он и выглядел в авторской раскадровке к фильму.Потом Джеймс отказался от этой идеи в пользу бескапотного «Фрейтлайнера» - по слухам, из-за того, что в первом «Терминаторе» была сцена, в которой Терминатор наезжает колесом машины на похожий бескапотный игрушечный грузовичок. Получилась неплохая отсылка к первой части.
☺ Сцена в канале, в которой у грузовика сносит крышу, появилась случайно, ее не было в сценарии. Просто Камерон, прибыв на место съемок, обнаружил, что грузовик не проходит под мостом, и решил использовать это обстоятельство для создания дополнительной зрелищной сцены.
☺ Роберт Патрик на самом деле не ведет грузовик – он сидит с правой стороны, в то время, как за настоящим рулем, находящимся где положено, то есть слева (и опущенным вниз) скрывается каскадер, который и управляет машиной. Это было сделано для того, чтобы Роберт мог сосредоточиться на актерской игре, и не отвлекался на управление. На стадии монтажа картинка была перевернута зеркально, так что Роберт оказался слева, где и должен быть руль, и создалась полная иллюзия того, что Т-1000 действительно ведет грузовик.
☺ Взрыв здания «Cyberdyne Systems» снимали 11 камер.
☺ Для того, чтобы снять сцену, в которой вертолет врезается в фургон, потребовалось разбить три вертолета и три фургона.
☺ В сцене воссоединения кусочков разбитого Т-1000 использовалась самая настоящая ртуть, которую сгоняли в одну лужу с помощью промышленных фенов, в средствах спецзащиты и под бдительным присмотром «американского МЧС».
Терминатор 3: Восстание машин / Terminator 3: Rise of the Machines«И восстанут машины…»- Год выпуска: 2003
Страна: США, Германия, Великобритания
Жанр: фантастика, боевик.
Продолжительность: 01:49:06
Перевод: Профессиональный (дублированный)-Режиссер:
Джонатан Мостоу / Jonathan Mostow
-В ролях:
Арнольд Шварценеггер
Ник Стал
Клэр Дэйнс
Кристанна Локен
Дэвид Эндрюс
Марк Фамиглетти
Эрл Боэн
Мойра Харрис
Чоппер Бернет
Кристофер Лоуфорд ...
-Описание:
Прошло десять лет с тех пор, как Джон Коннор помог предотвратить Судный День и спасти человечество от массового уничтожения. Теперь ему 25, Коннор не живет «как все» — у него нет дома, нет кредитных карт, нет сотового телефона и никакой работы.Его существование нигде не зарегистрировано. Он не может быть прослежен системой Skynet — высокоразвитой сетью машин, которые когда-то попробовали убить его и развязать войну против человечества. Пока из теней будущего не появляется T-X — Терминатрикс, самый сложный киборг-убийца Skynet.Посланная назад сквозь время, чтобы завершить работу, начатую её предшественником, T-1000, эта машина так же упорна, как прекрасен её человеческий облик. Теперь единственная надежда Коннору выжить — Терминатор, его таинственный прежний убийца. Вместе они должны одержать победу над новыми технологиями T-X и снова предотвратить Судный День...
- -Бюджет: $200 000 000
Сборы в США: $150 371 112
Сборы в мире: + $283 000 000 = $433 371 112
Сборы в России: $12 820 000-Премьера (мир): 30 июня 2003
Премьера (РФ): 3 июля 2003
Релиз на Blu-Ray: 11 июня 2009-Качество: BDRip
Формат: AVI
Видео: 720x304 (2.35:1), 23.976 fps, XviD, 2404 Kbps
Аудио: AC3, 448 Kbps, 48.0 KHz, 6 ch

Формат : AVI
Формат/Информация : Audio Video Interleave
Профиль формата : OpenDML
Размер файла : 2,18 Гбайт
Продолжительность : 1 ч. 49 м.
Общий поток : 2864 Кбит/сек
Программа кодирования : VirtualDubModRus 1.5.10.2 (build 2542/release)
Библиотека кодирования : VirtualDubMod build 2542/release
Видео
Идентификатор : 0
Формат : MPEG-4 Visual
Профиль формата : Advanced [email protected]
Параметр BVOP формата : 1
Параметр QPel формата : Нет
Параметр GMC формата : Без точки перехода
Параметр матрицы формата : Выборочная
Идентификатор кодека : XVID
Идентификатор кодека/Подсказка : XviD
Продолжительность : 1 ч. 49 м.
Битрейт : 2404 Кбит/сек
Ширина : 720 пикселей
Высота : 304 пикселя
Соотношение сторон : 2,35:1
Частота кадров : 23,976 кадра/сек
Цветовое пространство : YUV
Субдискретизация насыщенности : 4:2:0
Битовая глубина : 8 бит
Тип развёртки : Прогрессивная
Метод сжатия : С потерями
Бит/(Пиксели*Кадры) : 0.458
Размер потока : 1,83 Гбайт (84%)
Библиотека кодирования : XviD 1.2.1 (UTC 2008-12-04)
Аудио
Идентификатор : 1
Формат : AC-3
Формат/Информация : Audio Coding 3
Расширение режима : CM (complete main)
Идентификатор кодека : 2000
Продолжительность : 1 ч. 49 м.
Вид битрейта : Постоянный
Битрейт : 448 Кбит/сек
Каналы : 6 каналов
Расположение каналов : Front: L C R, Side: L R, LFE
Частота : 48,0 КГц
Битовая глубина : 16 бит
Метод сжатия : С потерями
Размер потока : 350 Мбайт (16%)
Выравнивание : Разделение по промежуткам
Продолжительность промежутка : 42 мс. (1,00 видеокадр)
Время предзагрузки промежутка : 500 мс.
-

☺ На момент выхода в кинопрокат «Терминатор 3: Восстание машин» был самым дорогим фильмом с официально подтвержденным бюджетом. Хотя, другие фильмы стоили больше, но их бюджеты не были официально подтверждены.
☺ Изначально предполагалось, что съёмки фильма пройдут в Ванкувере (Канада), но в последний момент было решено снимать фильм в Лос-Анджелесе (США). Одна из причин переноса места съёмок — резко возросшая критика американских кинокомпаний, осуществляющих съёмки за пределами США. Кроме того, в то же самое время началась политическая кампания Арнольда Шварценеггера на пост губернатора Калифорнии. Официальная причина переноса места съёмок — в последний момент освободились производственные мощности на киностудии в Лос-Анджелесе, необходимые для осуществления съёмок данного фильма.
☺ В первых версиях сценария присутствовал Терминатор под именем «Т-1G». Предполагалось, что это будет мужская роль.
☺ Роль Т-Х могла достаться Джоани Лорер, Вину Дизелю, Шакилу О`Нилу, Фамке Янсен, Кэрри Энн-Мосс, Пете Уилсон, Джерри Райан.
☺ Роль Кэйт Брюстер могла исполнить Клэр Форлани.
☺ Кандидатуры Шэйна Уэста, Бена Кёртиса, Криса Клейна рассматривалась на роль Джона Коннора.
☺ После первой недели съёмок Софиа Буш, игравшая Кэйт Брюстер, была заменена на Клэр Дэйнс, т.к. по мнению режиссера, Софиа была слишком молода, для того чтобы играть возлюбленную Джона Коннора.
☺ Джеймс Камерон не принимал никакого участия в создании этого фильма.
☺ Энг Ли мог стать режиссером этого фильма, но он предпочел поставить «Халка» (2003).
☺ Первоначальный слоган фильма — «Война начнется в 2003 году» (The War Begins 2003). Однако от данного слогана пришлось отказаться из-за политической ситуации того времени и начала войны в Ираке.
☺ Компания Toyota Motor предоставила для съёмок семь грузовиков «Toyota Tundra». Все они были разбиты во время съёмок.
☺ Арнольд Шварценеггер отдал $1.4 млн. долларов из своего гонорара на то, чтобы была снята сцена, в которой кран врезается в стеклянное здание. Дело в том, что Джонатан Мостоу не был уверен в целесообразности съёмок этой сцены, т.к. он боялся, что будет превышен первоначальный бюджет, а также съёмки фильма займут куда больший срок, чем предполагалось изначально.
☺ В первом варианте сценария присутствовал персонаж — детектив Вукович (из «Терминатора» (1984), в роли которого должен был вернуться Ланс Хенриксон. Предполагалось, что этот персонаж будет прикован к инвалидному креслу, виной чему послужили события, рассказанные в первом фильме трилогии. В конце концов, создатели фильма отказались от данной идеи.
☺ Специально для роли Т-Х Кристанна Локен набрала 15 фунтов (примерно 6,8 кг) мышечной массы. Также она брала специальные уроки пантомимы, т.к. её персонаж говорит крайне редко, и она должна была научиться общаться с помощью выражения лица и жестов.
☺ В рекламных целях компания Indian Motorcycle предоставила для съёмок фильма восемь мотоциклов «Chief», которые использовались в качестве патрульных мотоциклов.
☺ Кроме Арнольда Шварценеггера, единственный актер, появляющийся во всех трех фильмах, — Эрл Боэн, сыгравший доктора Силберманна.
☺ В данном фильме Арнольд Шварценеггер не произносит своей коронной фразы «Я вернусь» (I`ll be back). Однако в этом фильме он говорит «Она вернется» (She`ll be back) и «Я вернулся» (I`m back).
☺ Известная фраза «Выходи!» (Get out!) используется во всех трех фильмах. В этом фильме также есть схожая фраза: когда Терминатор забирает полицейский мотоцикл, он говорит: «Слезай!» (Get off!).
☺ В данном фильме не произносится известная фраза первых двух фильмов — «Пойдем со мной, если хочешь жить» (Come with me if you want to live). Однако в «Терминаторе 3» есть похожая фраза, сказанная Джоном Кейт: «Хочешь жить? Залезай!» (Do you wanna live? Come on!).
☺ Джеймс Камерон отказался от режиссуры, т.к. по его мнению, история была завершена во втором фильме.
☺ Режиссером фильма мог стать Ридли Скотт, но он предпочел снять «Чёрного ястреба» (2001).
☺ Одно время кандидатура Джона Мактирнана рассматривалась на пост режиссера.
☺ Изначально жениха Кэйт Брюстер звали Скотт Петерсен. Однако из-за судебного процесса над Скоттом Петерсоном, обвиненном в убийстве своей беременной жены, имя жениха Кэйт изменили на Скотт Мэйсон. Но в финальных титрах он указан как Скотт Петерсен.
☺ Кадр, в котором Терминатор садится на мотоцикл, заводит его и затем сворачивает направо, снят под одним и тем же ракурсом во всех трех фильмах.
☺ Человек, кричащий на Джона Коннора, после того как последний врезался в его машину, — Билли Ди Лукас, каскадер-дублер Арнольда Шварценеггера.
☺ Точное время наступления судного дня — 18 часов 18 минут 24 июля 2004 года.
☺ В этом фильме Арнольд Шварценеггер сыграл свою последнюю главную роль в кино (но не свою последнюю роль — позднее он исполнил роли-камео в других фильмах), перед тем как он был выбран на пост губернатора Калифорнии.
☺ Линде Хэмилтон предлагали в третий раз сыграть Сару Коннор, но она отклонила данное предложение.
☺ Первая неделя съёмок была посвящена съёмкам сцены, в которой Терминатор врезается на грузовике в Т-Х. Последний день съёмок — сцена, в которой Т-Х появляется из временного портала.
☺ Во время съёмок сцены, в которой Скотт Мэйсон / Петерсон трансформируется в Т-Х, оба актера в точности воспроизводили движения друг друга. Примечательно, что Марк Фамиглетти, сыгравший Скотта, был вынужден ходить в туфлях на платформе, т.к. Кристанна Локен значительно выше его.
☺ В сцене, в которой Терминатор производит перезагрузку своей системы, для того чтобы избавиться от порчи данных, вызванной вмешательством Т-Х, можно заметить, какие элементы своей системы он перезагружает: дистанционный доступ (Remote Access), звук (Sound), память (Memory), обновление системы (Software Update), QuickTime Player, время и дата (Date and Time), несколько пользователей (Multiple Users), доступ к главной цепи (Keychain Access), определение места положения (Location Manager), устройство, экономящее энергию (Energy Saver), установка прикладных программ (Add Application Program), MP3.com. Все эти элементы, за исключением MP3.com, входят в операционные системы Apple Macintosh, скорее всего в Mac OS 9. Похожая шутка была еще в первом фильме: если во время вида из глаз внимательно присмотреться к командам Терминатора, то можно сделать вывод, что в нем используется микропроцессор Motorola 6502. На момент съёмок «Терминатора» (1984) данный процессор использовался в компьютерах Apple II.
☺ Среди перечисления названий авиабаз, над которыми Скайнет установил контроль, можно заметить «Moron Airfield» и «Batman Air Base». Это реально существующие авиабазы. Первая из них находится в Испании, вторая — в Турции.
☺ Первый вариант сценария существенно отличался от готового фильма. Например, Джон Коннор был успешным программистом, который частично был ответственен за активацию Скайнет. Также в фильм должна была вернуться Сара Коннор. Злой Терминатор мог менять свою форму, а также принимать газообразное состояние.
☺ Из фильма вырезали сцену, в которой объяснялось, почему Терминаторы выглядят как Арнольд. В данной сцене сержант Кэнди, которого сыграл Шварценеггер, говорит о том, что его внешность будет использована для создания Терминаторов. Данную сцену можно найти на DVD-издании фильма.
☺ До начала съёмок Арнольд Шварценеггер качался каждый день на протяжении 6 месяцев. Каждая тренировка продолжалась около трех часов. Когда начались съёмки, Арнольд был в точно такой же физической форме, как при съёмках «Терминатора 2» (1991).
☺ Три модели Т-1, созданные в натуральную величину, были использованы при съёмках сцены в ангаре, в которой мы можем увидеть десятки Т-1. При монтаже их количество размножили с помощью компьютеров.
☺ Теди Сарафьян написал один из ранних вариантов сценария. Если бы фильм снимали по этому сценарию, то бюджет картины составил бы более $ 200 млн., т.к. в сценарии содержалось несколько колоссальных по масштабу сцен: например, сцена, в которой «Боинг» терпит крушение в центре Лос-Анджелеса, и разносит почти половину города. Однако некоторые идеи Сарафьяна были использованы в фильме (Терминатор-женщина, Сара Коннор не появляется в фильме), поэтому он указан в титрах как автор сюжета.
☺ На некоторых кадрах крюк крана не настоящий, а компьютерный.
☺ Монтаж сцены-погони занял шесть месяцев.
☺ Долгое время Арнольд Шварценеггер соглашался играть в фильме, если только режиссером станет Джеймс Камерон. Как известно, Камерон отказывался ставить фильм при любых условиях. В конце концов, Камерон посоветовал Шварценеггеру в третий раз исполнить роль Терминатора, но запросить у студии чертову кучу денег в качестве гонорара. Арни так и сделал — его гонорар составил $ 30 млн.
☺ Во всех трех фильмах определение «я вернусь» означает въезд в здание какого-либо транспортного средства. В первом фильме Терминатор говорит «я вернусь» дежурному офицеру, а затем заезжает на автомобиле в холл полицейского участка. Во втором фильме после слов «я вернусь» Терминатор заезжает на микроавтобусе в здание «Кибердайн Системс». В третьем фильме Терминатор влетает в ангар на вертолете, выходит из него и восклицает: «Я вернулся!».
☺ А. Шварценеггер, спрашивая Клер Дейнс, где Джон Коннор, пообещал что отпустит ее если она скажет, затем он сказал - 'Я солгал...', то же самое он говорит в фильме Командос, когда скидывает парня со скалы.
☺ Кристанна Локен произносит все свои реплики в первые двадцать пять минут фильма.
☺ Незадолго до концовки фильма, на экране компьютерной консоли появляется надпись «Голубой 478» (Blue 478) и Джон говорит: «Дакота 775» (Dakota 775). Данные кодовые номера — ссылки на гнезда для микропроцессоров Intel Pentium 4: Socket 478 и LGA 775.
☺ В фильме Джону Коннору — 23 года, хотя должно быть 19, так как он родился в 1985. Более того, говорится, что атаку второго терминатора он пережил в возрасте 13 лет, в то время как в фильме Кэмерона ему было 10 лет.

Терминатор: Да придёт спаситель / Terminator Salvation«Начало конца»- Год выпуска: 2009
Страна: США, Германия, Великобритания, Италия
Жанр: фантастика, боевик
Продолжительность: 01:57:31
Перевод: Профессиональный (дублированный)-Режиссер:
МакДжи / McG
-В ролях:
Кристиан Бэйл
Сэм Уортингтон
Мун Бладгуд
Хелена Бонем Картер
Антон Ельчин
Брайс Даллас Ховард
Джейн Александр
Майкл Айронсайд ...
-Описание:
2018 год от рождества Христова. Джон Коннор — человек, чья судьба — возглавить Сопротивление электронному мозгу Скайнет и армии Терминаторов. Но в будущее, с верой в которое он возвращен, вклинивается таинственный Маркус Райт: незнакомец, чьи последние воспоминания рисуют камеру смертников. Коннор должен понять, кто такой Маркус — посланник будущего или спасшийся из прошлого. И на фоне подготовки Скайнетом решающего удара, Коннор и Райт отправляются в путешествие, приводящее их в самую сердцевину взбунтовавшейся операционной системы, где открывается ужасная тайна, кроющаяся за потенциальным уничтожением человечества.
- -Бюджет: $200 000 000
Сборы в США: $125 322 469
Сборы в мире: + $246 030 532 = $371 353 001
Сборы в России: $14 507 635-Премьера (мир): 14 мая 2009
Премьера (РФ): 4 июня 2009
Релиз на DVD: 20 августа 2009
Релиз на Blu-Ray: 28 января 2010-Качество: BDRip
Формат: AVI
Видео: 720x304 (2.35:1), 23.976 fps, XviD, 2199 Kbps
Аудио: AC3, 448 Kbps, 48.0 KHz, 6 ch

Формат : AVI
Формат/Информация : Audio Video Interleave
Профиль формата : OpenDML
Размер файла : 2,18 Гбайт
Продолжительность : 1 ч. 57 м.
Общий поток : 2659 Кбит/сек
Программа кодирования : VirtualDubModRus 1.5.10.2 (build 2542/release)
Библиотека кодирования : VirtualDubMod build 2542/release
Видео
Идентификатор : 0
Формат : MPEG-4 Visual
Профиль формата : Advanced [email protected]
Параметр BVOP формата : 1
Параметр QPel формата : Нет
Параметр GMC формата : Без точки перехода
Параметр матрицы формата : Выборочная
Идентификатор кодека : XVID
Идентификатор кодека/Подсказка : XviD
Продолжительность : 1 ч. 57 м.
Битрейт : 2199 Кбит/сек
Ширина : 720 пикселей
Высота : 304 пикселя
Соотношение сторон : 2,35:1
Частота кадров : 23,976 кадра/сек
Цветовое пространство : YUV
Субдискретизация насыщенности : 4:2:0
Битовая глубина : 8 бит
Тип развёртки : Прогрессивная
Метод сжатия : С потерями
Бит/(Пиксели*Кадры) : 0.419
Размер потока : 1,81 Гбайт (83%)
Библиотека кодирования : XviD 1.2.1 (UTC 2008-12-04)
Аудио
Идентификатор : 1
Формат : AC-3
Формат/Информация : Audio Coding 3
Расширение режима : CM (complete main)
Идентификатор кодека : 2000
Продолжительность : 1 ч. 57 м.
Вид битрейта : Постоянный
Битрейт : 448 Кбит/сек
Каналы : 6 каналов
Расположение каналов : Front: L C R, Side: L R, LFE
Частота : 48,0 КГц
Битовая глубина : 16 бит
Метод сжатия : С потерями
Размер потока : 377 Мбайт (17%)
Выравнивание : Разделение по промежуткам
Продолжительность промежутка : 42 мс. (1,00 видеокадр)
Время предзагрузки промежутка : 500 мс.
-

☺ Марио Кассар и Эндрю Вайна в мае 2007 года продали все права на франчайз начинающей в кинобизнесе компании The Halcyon частных предпринимателей Виктора Кубичека и Дерека Андерсона.
☺ Начало двухмесячных съёмок запланировано на 5 мая 2008 года в американском штате Нью-Мексико.
☺ В июле 2007 года продюсеры Кубичек и Андерсон подали иск в Верховный суд Лос-Анджелеса против кинокомпании MGM, обвиняя её во вмешательстве в запланированные планы дистрибьюции фильма. Представители студии, в свою очередь, утверждали, что у них есть право на 30-дневные переговоры по поводу проката в кинотеатрах, приобретённое ими после банкротства Orion Pictures в 1997 году. Основной спор заключался в том, что компания The Halcyon пожелала самостоятельно выбрать дистрибьютора для «Терминатора 4 » – того, кто предложит наилучшие условия.
☺ Права на прокат фильма в итоге были приобретены студиями Warner Bros. (Северная Америка) и Sony Pictures Worldwide Acquisitions Group в лице Columbia Pictures (все остальные страны, кроме Японии (Toho Towa) ) – точно такая же паритетная схема была использована при дистрибьюции «Терминатора 3: Восстания машин » (2003).
☺ По замыслу Виктора Кубичека и Дерека Андерсона, это будет первый фильм новой трилогии, действие которой развернётся уже в постапокалиптическом будущем.
☺ 19-летнему американскому россиянину Антону Ельчину достался образ Кайла Риса – солдата под началом Джона Коннора, которого тот отправит в прошлое для спасения своей матери ещё до собственного зачатия (в первом «Терминаторе » роль Риса исполнил Майкл Бьен).
☺ Авторы сценария: Джон Бранкато и Майкл Феррис («Сеть », «Игра »), также написавшие сюжет «Терминатора 3: Восстания машин » (2003), а также Дэвид Кэмпбелл Уилсон и двукратный обладатель премии «Оскар » Пол Хаггис (он «почистил » перья «бондовских » сценариев «Казино Рояль » и «Кванта милосердия »).
☺ Для Кристиана Бэйла это уже вторая роль-икона в фильмах студии Warner Bros. , после Бэтмена в блокбастерах Кристофера Нолана.
☺ Инициалы Джона Коннора (John Connor) совпадают с инициалами Иисуса Христа (Jesus Christ). Во время событий фильма Джону Коннору 33 года (в этом возрасте был распят Иисус Христос).
☺ Первый фильм о терминаторах с рейтингом PG-13.
☺ Изначально в голове режиссера фильма МакДжи была очень своеобразная музыкальная концепция - один композитор должен был написать все «человеческие» темы, а другой - темы восставших машин. Затем была попытка привлечь к работе над фильмом Ганса Циммера и даже автора главной терминаторской темы Брэда Фидела, хотя использование именно классической темы МакДжи не планировал. Однако, когда к работе над саундтреком приступил Дэнни Эльфман, композитор использовал некоторые мелодии из первых двух «Терминаторов» в непривычном эмбиентном звучании, тогда как основные темы нового фильма написаны с симфоническим размахом.
☺ Дизайн мототерминатора, разработанного для фильма «Terminator Salvation», был создан не на пустом месте, а вдохновлен вполне конкретной моделью современного мотоцикла - «Hypermotard 1100» от итальянской компании «Ducati».
☺ Хелена Бонем Картер заменила Тильду Свинтон вскоре после начала съемок.
☺ Джошу Бролину предлагали роль Маркуса Райта, но он отказался
☺ Это первый фильм про Терминатора, в котором не снимается Еар Боуен. В предыдущих фильмах он сыграл психолога.
☺ Основной съемочный процесс занял 77 дней
☺ В нескольких кадрах внимание уделяется ногам персонажей. Это фирменная «фишка» Джеймса Кэмерона - режиссера первый 2-х частей.
☺ Старые записи Сары Коннор были записаны Линдой Хамилтон специально для данного фильма. Запись произведена слово в слово с оригинальным «Терминатором»(1984).
☺ Т-800 прибывает в 1984 году возле Обсерватории Гриффин Парк. В данном фильме Кайл и Маркус идут в это место чтобы взять машину.
☺ Трюк с привязыванием ружья к руке, который Маркус показывает Кайлу, более старший Кайл использует в оригинальном «Терминаторе» (1984).
☺ В данном фильме можно увидеть происхождение шрамов Джона Коннора, которые мы видим в первой сцене фильма «Терминатор 2»(1991).
☺ По данному фильму была сделана одноименная игра.
☺ По данному фильму американский писатель Алан Дин Фостер написал одноименную фантастическую книгу.
☺ В эпизоде когда Кейт спрашивает Джона - «Что сказать солдатам когда тебя хватятся?», в ответ прозвучало - «Я вернусь» (I`ll be back). Эту фразу говорил Шварцнеггер в 3-х предыдущих фильмах.
☺ Чтобы лучше передать тревожную военную атмосферу, МакДжи взял старую пленку Kodak и некоторое время держал ее на солнце.
☺ Во время создания фильма скончался Стэн Уинстон, гуру спецэффектов «докомпьютерной» эры. «Терминатор: Да придёт спаситель» посвящен его памяти.
Если не хотите качать не нужные Вам аудиодорожки, просто уберите с них галочки в торрент-файле!!!
Download / Скачать

Хотите скачать бесплатно? Зарегистрируйтесь на сайте (ссылка на регистрацию). Pirat.ca - самый быстрый торрент трекер в рунете!

Как скачивать  ·   Что такое торрент  ·   Рейтинг и ограничения

Пост 07-Мар-2012 15:15 (спустя 22 минуты)

Топик был перенесен из форума Художественные фильмы (Зарубежное кино) в форум Зарубежное Кино

Чужая
 

jumpersky

Легенда

Пост 07-Мар-2012 22:30 (спустя 7 часов)

[Q] 

[Профиль]  [ЛС] 

MihaLexx

Морской Волк

Пост 11-Мар-2012 16:37 (спустя 3 дня)

[Q] 

[Профиль]  [ЛС] 

Jigsaw

Пост 12-Май-2012 23:39 (спустя 2 месяца 1 день)

[Q] 



 

CHARLI2236

1096

Пост 26-Авг-2012 21:05 (спустя 3 месяца 13 дней)

[Q] 

благодарю

_________________
[Профиль]  [ЛС] 

odyssey123

Флибустьер

Пост 21-Окт-2012 14:38 (спустя 1 месяц 25 дней)

[Q] 

[Профиль]  [ЛС] 

LitleBear

Лоцман

Пост 27-Ноя-2012 14:18 (спустя 1 месяц 5 дней)

[Q] 

Собрание неплохое,но в 4й местами нет перевода. ca
[Профиль]  [ЛС] 

barton

Шкипер

Пост 27-Дек-2012 04:36 (спустя 29 дней)

[Q] 

[Профиль]  [ЛС] 

okorm

889

Пост 20-Фев-2013 11:52 (спустя 1 месяц 24 дня)

[Q] 

[Профиль]  [ЛС] 

SuperBeTeR

Морской Волк

Пост 30-Июн-2013 13:24 (спустя 4 месяца 10 дней)

[Q] 

Хорошо, что квадрология, а не какая-нибудь гепталогия, где половина анимешные мультики "Айл би бэк, сан, канничива!" bj
[Профиль]  [ЛС] 

Lev1945

Морской Волк

Пост 26-Июл-2013 22:25 (спустя 26 дней)

[Q] 

Ура!
[Профиль]  [ЛС] 

Cron76

Юнга

Пост 16-Сен-2013 06:15 (спустя 1 месяц 20 дней)

[Q] 

ОГРОМНОЕ СПАСИБО Супер! Раздающему респект!
[Профиль]  [ЛС] 

Smulya

Морской Волк

80

Пост 02-Окт-2013 23:14 (спустя 16 дней)

[Q] 

Класс! Забираем Спасибо!!!

_________________
[Профиль]  [ЛС] 

Farleyndia

Лоцман

Пост 21-Июн-2014 18:49 (спустя 8 месяцев 18 дней)

[Q] 

Хорошая подборка. Спасибо.
[Профиль]  [ЛС] 

racom

2341

Пост 07-Ноя-2014 02:40 (спустя 4 месяца 15 дней)

[Q] 

Мою раздачу убили 1080р квадро на терминатора, зато здесь 3х гиговые малоэкранки лежат... круто чо...

_________________
[Профиль]  [ЛС] 

Евгений Чередников

Морской Волк

Пост 08-Дек-2014 18:15 (спустя 1 месяц 1 день)

[Q] 

Спасибо!!! Супер!

_________________
[Профиль]  [ЛС] 

fiona-d

Шкипер

32

Пост 10-Апр-2015 11:18 (спустя 4 месяца 1 день)

[Q] 

Раздающему респект! Лови бочку спасибо!
[Профиль]  [ЛС] 

Zloy

Корсар

Пост 17-Июн-2015 19:56 (спустя 2 месяца 7 дней)

[Q] 

Я так понимаю 2 - 4 части режисёркие ? Посему первую часть снести и заменить расширенной режисёрской версией и всё будет на мази !!! Спасибо за труды !
Добавлено спустя 8 минут 9 секунд:
271539Собрание неплохое,но в 4й местами нет перевода. ca
Это режисёрские версии (полные, без вырезов) кроме первой части.
[Профиль]  [ЛС] 

djos

Морской Волк

Пост 07-Сен-2015 01:08 (спустя 2 месяца 19 дней)

[Q] 

Спасибо! Любимый фильм Т2
[Профиль]  [ЛС] 

xzxscorpxzx

Флибустьер

Пост 14-Сен-2015 01:26 (спустя 7 дней)

[Q] 

любимые фильмы.спасибо
[Профиль]  [ЛС] 

Asderon75

Штурман

83

Пост 05-Ноя-2015 00:24 (спустя 1 месяц 20 дней)

[Q] 

Шикарная раздача Спасибо!!!
[Профиль]  [ЛС] 
Показать сообщения:    
Ответить на тему

Текущее время: Сегодня 06:03

Часовой пояс: GMT + 4



Вы не можете начинать темы
Вы не можете отвечать на сообщения
Вы не можете редактировать свои сообщения
Вы не можете удалять свои сообщения
Вы не можете голосовать в опросах
Вы не можете прикреплять файлы к сообщениям
Вы не можете скачивать файлы

▼ Вниз