ML
     
  Уважаемый Гость!
Вы можете поддержать проект и зарегистрироваться у наших партнеров - онлайн-стратегия MyLands. При регистрации в игре Вы получите код, который сможете активировать после регистрации на pirat.ca и получить 1000 дублонов.

Ваш код:
73640f24f8a0f579e128ea7346fd2db2b1009143
 
     

Человек-Паук [ТРИЛОГИЯ] / Spider-Man [TRILOGY] (Сэм Рэйми /Sam Raimi) [HDRip] (Фантастика / Боевик / Триллер / Криминал) (2002-2007) (MVO, DUB)

Ответить на тему
 
Автор
Сообщение

Пост 01-Ноя-2011 19:35

[Q] 

goxakrauter

Человек-Паук
ТРИЛОГИЯ
--Человек-Паук / Spider-Man- Год выпуска: 2002
Страна: США
Жанр: Фантастика / Боевик / Триллер / Криминал
Продолжительность: 02:01:12
Перевод: Профессиональный (двухголосый) - П.Гланц и А.Назарова-Режиссер: Сэм Рэйми /Sam Raimi
В ролях: Тоби Мануайр, Кирстен Данст, Уиллем Дафо, Джеймс Франко, Розмари Харрис, Клифф Робертсон-Описание: Однажды, во время научной демонстрации опытов облученный радиацией паук незаметно кусает студента средней школы Питера Паркера. После этого у молодого человека развиваются необыкновенные способности, которыми обладают только пауки. Теперь он, подобно паукам, может лазить по стенам и потолкам, из жидкости на своих запястьях может делать подобие паутины, а также у него развивается особое чувство пауков, помогающее чувствовать приближающуюся опасность. Назвавшись "Человек-паук" Питер сначала пытается использовать новые возможности своего организма, чтобы зарабатывать деньги. Но после того, как его дядя погибает от рук преступников, Питер решает направить всю свою силу на борьбу со злом. В то же самое время ученый и бизнесмен Норман Осборн в результате воздействия на него экспериментального нервного газа превращается в супер-сильного злодея "Зеленого гоблина". После этого Питера или "Человека-паука" волнуют только три вещи в жизни: его новая работа в местной газете, борьба с "Зеленым гоблином" и внимание его одноклассницы Мэри Джейн Ватсон…-Кинопоиск-Качество: HDRip
Формат: AVI
Видео кодек: XviD
Аудио кодек: MP3
Видео: 624x336 (1.86:1), 23.976 fps, XviD build 50 ~722 kbps avg, 0.14 bit/pixel
Аудио: 48 kHz, MPEG Layer 3, 2 ch, ~128.00 kbps avg-
General
Format : AVI
Format/Info : Audio Video Interleave
File size : 746 MiB
Duration : 2h 1mn
Overall bit rate : 860 Kbps
Writing application : VirtualDubMod 1.6.0.0 SURROUND (build 2560/release)
Writing library : VirtualDubMod build 2560/release
Video
ID : 0
Format : MPEG-4 Visual
Format profile : Advanced [email protected]
Format settings, BVOP : 1
Format settings, QPel : No
Format settings, GMC : No warppoints
Format settings, Matrix : Custom
Codec ID : XVID
Codec ID/Hint : XviD
Duration : 2h 1mn
Bit rate : 723 Kbps
Width : 624 pixels
Height : 336 pixels
Display aspect ratio : 1.857
Frame rate : 23.976 fps
Color space : YUV
Chroma subsampling : 4:2:0
Bit depth : 8 bits
Scan type : Progressive
Compression mode : Lossy
Bits/(Pixel*Frame) : 0.144
Stream size : 627 MiB (84%)
Writing library : XviD 1.2.1 (UTC 2008-12-04)
Audio
ID : 1
Format : MPEG Audio
Format version : Version 1
Format profile : Layer 3
Codec ID : 55
Codec ID/Hint : MP3
Duration : 2h 1mn
Bit rate mode : Constant
Bit rate : 128 Kbps
Channel(s) : 2 channels
Sampling rate : 48.0 KHz
Compression mode : Lossy
Stream size : 111 MiB (15%)
Alignment : Aligned on interleaves
Interleave, duration : 42 ms (1.00 video frame)
Interleave, preload duration : 504 ms
Writing library : LAME3.97
Encoding settings : -m s -V 4 -q 2 -lowpass 17 -b 128



--Человек-Паук 2 / Spider-Man 2- Год выпуска: 2004
Страна: США
Жанр: Фантастика / Боевик / Триллер / Криминал
Продолжительность: 02:07:27
Перевод: Любительский (двухголосый, закадровый) - Tycoon-Режиссер: Сэм Рэйми /Sam Raimi
В ролях: Тоби Магуайр, Кирстен Данст, Альфред Молина, Джеймс Франко, Элизабет Бэнкс, Брюс Кэмпбелл-Описание: Прошло два года. Тихоня Питер Паркер продолжает неравную борьбу со своим даром и одновременно - проклятьем. Он отчаянно пытается удержаться на тонкой грани между двумя своими воплощениями: супергероем Человеком-Пауком и обычным студентом колледжа. Он понимает, что если его тайна будет раскрыта, то взаимоотношения со всеми, кто ему дорог, могут быть в одночасье уничтожены. Его страсть к Эм Джей становится все сильнее, и он постоянно сражается со своим желанием раскрыться ей и признаться во всем. Его дружба с Гарри Осборном осложняется ненавистью молодого Осборна к Человеку-Пауку, убийце его отца, его болью и желанием отомстить. Даже любимая тетушка Мэй, переживающая не лучшие времена после смерти дяди Бена, начинает что-то подозревать о своем племяннике. Но это были еще цветочки. Внезапно Питер оказывается лицом к лицу с новым опасным врагом - Доктором Отто Октавиусом. Питер должен использовать все свои силы и возможности, чтобы остановить этого дьявольского маньяка.-Кинопоиск-Качество: HDRip
Формат: AVI
Видео кодек: XviD
Аудио кодек: MP3
Видео: 688x288 (2.39:1), 23.976 fps, XviD build 50 ~701 kbps avg, 0.15 bit/pixel
Аудио: 48 kHz, MPEG Layer 3, 2 ch, ~128.00 kbps avg-
General
Format : AVI
Format/Info : Audio Video Interleave
File size : 765 MiB
Duration : 2h 7mn
Overall bit rate : 839 Kbps
Writing application : VirtualDubMod 1.6.0.0 SURROUND (build 2560/release)
Writing library : VirtualDub build 24463/release
Video
ID : 0
Format : MPEG-4 Visual
Format profile : Advanced [email protected]
Format settings, BVOP : 1
Format settings, QPel : No
Format settings, GMC : No warppoints
Format settings, Matrix : Custom
Codec ID : XVID
Codec ID/Hint : XviD
Duration : 2h 7mn
Bit rate : 702 Kbps
Width : 688 pixels
Height : 288 pixels
Display aspect ratio : 2.35:1
Frame rate : 23.976 fps
Color space : YUV
Chroma subsampling : 4:2:0
Bit depth : 8 bits
Scan type : Progressive
Compression mode : Lossy
Bits/(Pixel*Frame) : 0.148
Stream size : 640 MiB (84%)
Writing library : XviD 1.2.1 (UTC 2008-12-04)
Audio
ID : 1
Format : MPEG Audio
Format version : Version 1
Format profile : Layer 3
Codec ID : 55
Codec ID/Hint : MP3
Duration : 2h 7mn
Bit rate mode : Constant
Bit rate : 128 Kbps
Channel(s) : 2 channels
Sampling rate : 48.0 KHz
Compression mode : Lossy
Stream size : 117 MiB (15%)
Alignment : Aligned on interleaves
Interleave, duration : 42 ms (1.00 video frame)
Interleave, preload duration : 504 ms
Writing library : LAME3.97
Encoding settings : -m s -V 4 -q 2 -lowpass 17 -b 128-m s -V 4 -q 2 -lowpass 17 -b 128-m s -V 4 -q 2 -lowpass 17 -b 128



--Человек-Паук 3 / Spider-Man 3
Враг в отражении
- Год выпуска: 2007
Страна: США
Жанр: Фантастика / Боевик / Триллер / Криминал
Продолжительность: 02:19:11
Перевод: Профессиональный (полное дублирование)-Режиссер: Сэм Рэйми /Sam Raimi
В ролях: Тоби Магуайр, Кирстен Данст, Джеймс Франко, Томас Хейден Черч, Тофер Грэйс, Брайс Даллас Ховард, Розмари Харрис, Дж.К. Симмонс, Джеймс Кромуэлл, Тереза Расселл-Описание: Прошло пять лет с тех пор, как Питер Паркер стал Человеком-пауком, и три года, как он поклялся не надевать больше свой костюм супергероя. Но все меняется Под влиянием сверхъестественного вируса в Человеке-пауке пробуждаются темные силы. Желание обладать новыми сверхвозможностями борется с отчаянными попытками победить зло в себе.-Кинопоиск-Качество: HDRip
Формат: AVI
Видео кодек: XviD
Аудио кодек: MP3
Видео: Xvid 656x272 23.98fps 630kbps
Аудио: MPEG Audio Layer 3 44100Hz stereo 112kbps-
General
Format : AVI
Format/Info : Audio Video Interleave
File size : 749 MiB
Duration : 2h 19mn
Overall bit rate : 752 Kbps
Writing application : VirtualDubMod 1.5.10.2 (build 2540/release)
Writing library : VirtualDubMod build 2540/release
Video
ID : 0
Format : MPEG-4 Visual
Format profile : Advanced [email protected]
Format settings, BVOP : 3
Format settings, QPel : No
Format settings, GMC : No warppoints
Format settings, Matrix : Default (H.263)
Codec ID : XVID
Codec ID/Hint : XviD
Duration : 2h 19mn
Bit rate : 631 Kbps
Width : 656 pixels
Height : 272 pixels
Display aspect ratio : 2.40:1
Frame rate : 23.976 fps
Color space : YUV
Chroma subsampling : 4:2:0
Bit depth : 8 bits
Scan type : Progressive
Compression mode : Lossy
Bits/(Pixel*Frame) : 0.147
Stream size : 628 MiB (84%)
Writing library : XviD 1.2.1 (UTC 2008-12-04)
Audio
ID : 1
Format : MPEG Audio
Format version : Version 1
Format profile : Layer 3
Codec ID : 55
Codec ID/Hint : MP3
Duration : 2h 19mn
Bit rate mode : Constant
Bit rate : 112 Kbps
Channel(s) : 2 channels
Sampling rate : 44.1 KHz
Compression mode : Lossy
Stream size : 111 MiB (15%)
Alignment : Split accross interleaves
Interleave, duration : 42 ms (1.00 video frame)
Interleave, preload duration : 500 ms
Writing library : LAME3.98r
Encoding settings : -m s -V 4 -q 0 -lowpass 15.6 -b 112



--Трилогия составлена goxakrauter
Download / Скачать

Хотите скачать бесплатно? Зарегистрируйтесь на сайте (ссылка на регистрацию). Pirat.ca - самый быстрый торрент трекер в рунете!

Как скачивать  ·   Что такое торрент  ·   Рейтинг и ограничения



Последний раз редактировалось: goxakrauter (2011-11-06 20:32), всего редактировалось 1 раз

Пост 01-Ноя-2011 19:57 (спустя 22 минуты)

Топик был перенесен из форума Художественные фильмы (Зарубежное кино) в форум Зарубежное Кино

Чужая
 

CHARLI2236

1089

Пост 26-Ноя-2011 17:19 (спустя 24 дня)

[Q] 

спасибо

_________________
[Профиль]  [ЛС] 

Gvozdochet

Корсар

Пост 06-Апр-2012 02:14 (спустя 4 месяца 9 дней)

[Q] 

[Профиль]  [ЛС] 

heh123

Лоцман

Пост 13-Июл-2012 23:48 (спустя 3 месяца 7 дней)

[Q] 

[Профиль]  [ЛС] 

Basstaaa

Шкипер

Пост 02-Ноя-2012 11:10 (спустя 3 месяца 19 дней)

[Q] 

[Профиль]  [ЛС] 

samata

Морской Волк

210

Пост 22-Апр-2013 00:08 (спустя 5 месяцев 19 дней)

[Q] 


_________________
[Профиль]  [ЛС] 

egokdm

Гроза морей

1362

Пост 14-Фев-2014 23:35 (спустя 9 месяцев 22 дня)

[Q] 

Спасибо за подобный релиз!!!!!
[Профиль]  [ЛС] 

Farleyndia

Лоцман

Пост 26-Июн-2014 02:26 (спустя 4 месяца 11 дней)

[Q] 

Отличное кино. Рекомендую.
[Профиль]  [ЛС] 

xzxscorpxzx

Флибустьер

Пост 14-Сен-2015 06:40 (спустя 1 год 2 месяца)

[Q] 

детское) На любителя
[Профиль]  [ЛС] 
Показать сообщения:    
Ответить на тему

Текущее время: Сегодня 22:34

Часовой пояс: GMT + 4



Вы не можете начинать темы
Вы не можете отвечать на сообщения
Вы не можете редактировать свои сообщения
Вы не можете удалять свои сообщения
Вы не можете голосовать в опросах
Вы не можете прикреплять файлы к сообщениям
Вы не можете скачивать файлы

▼ Вниз