ML
     
  Уважаемый Гость!
Вы можете поддержать проект и зарегистрироваться у наших партнеров - онлайн-стратегия MyLands. При регистрации в игре Вы получите код, который сможете активировать после регистрации на pirat.ca и получить 1000 дублонов.

Ваш код:
73640f24f8a0f579e128ea7346fd2db2b1009143
 
     

Пила (Гепталогия) / Saw (Geptalogiya) (Джеймс Ван, Даррен Линн Боусман, Кевин Гротерт, Дэвид Хэкл)[Режиссерская версия / Director's Cut][2004 - 2010, BDRip]

Ответить на тему
 
Автор
Сообщение

Пост 02-Ноя-2011 01:40

[Q] 

ErgoProxy

Корсар

Пила (Гепталогия) / Saw (Geptalogiya)- Пила: Игра на выживание (Режиссерская версия) / Saw (Director's Cut)
Год выпуска: 2004
Страна: Evolution Entertainment, США-Австралия
Жанр: Ужасы, триллер, детектив
Продолжительность: 01:42:46
Перевод: Профессиональный (полное дублирование)
Режиссер: Джеймс Ван/James Wan
В ролях: Ли Уоннелл, Кэри Элвис, Дэнни Гловер, Кен Люн, Дина Мейер, Майк Баттерз, Пол Гутрехт, Майкл Эмерсон, Бенито Мартинес, Шоуни Смит
Описание: Двое незнакомцев просыпаются в странном подвальном помещении. В центре помещения — труп мужчины с простреленной головой и оружием в ослабевшей руке. Они же прикованы к стенам цепями за щиколотки. Оба не знают, как там оказались.
Путём нехитрых предположений и спрятанных вокруг них ответов, как частей какого-то паззла, они узнают, по крайней мере, зачем они здесь и что именно от них ждёт их Похититель. Голос с найденной плёнки бесстрастно вещает: «Если ты хочешь спасти свою жену и детей, убей другого». Убить другого можно, только дотянувшись до оружия.
Дотянуться до оружия нельзя иначе, как избавившись от цепи. Избавиться от цепи нельзя иначе, кроме как отпилив ногу. Времени — мало. Но достаточно, чтобы реконструировать цепочку странных событий, которые привели каждого из них туда, где они сейчас оказались…
Качество: BDRip
Формат: AVI
Видео кодек: XviD
Аудио кодек: AC3
Видео: 720x400 (1.80:1), 23.976 fps, XviD build 50 ~1446 kbps avg, 0.21 bit/pixel
Аудио: 48 kHz, AC3 Dolby Digital, 3/2 (L,C,R,l,r) + LFE ch, ~448 kbps-
Видео
Идентификатор : 0
Формат : MPEG-4 Visual
Профиль формата : Advanced [email protected]
Параметр BVOP формата : 1
Параметр QPel формата : Нет
Параметр GMC формата : Без точки перехода
Параметр матрицы формата : Default (MPEG)
Идентификатор кодека : XVID
Идентификатор кодека/Подсказка : XviD
Продолжительность : 1 ч. 42 м.
Битрейт : 1447 Кбит/сек
Ширина : 720 пикселей
Высота : 400 пикселей
Соотношение сторон : 16:9
Частота кадров : 23,976 кадра/сек
Цветовое пространство : YUV
Субдискретизация насыщенности : 4:2:0
Битовая глубина : 8 бит
Тип развёртки : Прогрессивная
Метод сжатия : С потерями
Бит/(Пиксели*Кадры) : 0.210
Размер потока : 1,04 Гбайт (76%)
Библиотека кодирования : XviD 1.2.1 (UTC 2008-12-04)
Аудио
Идентификатор : 1
Формат : AC-3
Формат/Информация : Audio Coding 3
Расширение режима : CM (complete main)
Идентификатор кодека : 2000
Продолжительность : 1 ч. 42 м.
Вид битрейта : Постоянный
Битрейт : 448 Кбит/сек
Каналы : 6 каналов
Расположение каналов : Front: L C R, Side: L R, LFE
Частота : 48,0 КГц
Битовая глубина : 16 бит
Метод сжатия : С потерями
Размер потока : 329 Мбайт (24%)
Выравнивание : Разделение по промежуткам
Продолжительность промежутка : 42 мс. (1,00 видеокадр)
Время предзагрузки промежутка : 500 мс.
-



--Пила II (Расширенная версия) / Saw II (Unrated Director's Cut)
Год выпуска: 2005
Страна: США
Жанр: Ужасы, триллер, криминал, детектив
Продолжительность: 01:34:32
Перевод: Профессиональный (полное дублирование)
Режиссер: Даррен Линн Боусман/Darren Lynn Bousman
В ролях: Тобин Белл, Шоуни Смит, Донни Уолберг, Эрик Надсен, Фрэнки Джи, Гленн Пламмер, Эммануэль Вожье, Беверли Митчел, Тим Берд, Дина Мейер
Описание: Во время расследования подробностей кровавых деяний неизвестного убийцы детектив Эрик Мэтьюс ловит себя на мысли, что они очень похожи на работу Пилы — известного маньяка, который смог исчезнуть, оставив за собой множество жертв. Метьюс оказывается прав. Пила снова взялся за свое ужасное ремесло. Только на этот раз вместо двух людей, он запирает в комнате смерти с единственных способом выбраться живым, сразу восемь человек. Восемь никак не связанных друг с другом незнакомцев оказываются вынуждены вступить в игру сумашедшего убийцы, ставками в которой будут их жизни…
Качество: BDRip
Формат: AVI
Видео кодек: XviD
Аудио кодек: AC3
Видео: 720x400 (1.80:1), 23.976 fps, XviD build 50 ~1613 kbps avg, 0.23 bit/pixel
Аудио: 48 kHz, AC3 Dolby Digital, 3/2 (L,C,R,l,r) + LFE ch, ~448 kbps-
Видео
Идентификатор : 0
Формат : MPEG-4 Visual
Профиль формата : Advanced [email protected]
Параметр BVOP формата : 1
Параметр QPel формата : Нет
Параметр GMC формата : Без точки перехода
Параметр матрицы формата : Default (MPEG)
Идентификатор кодека : XVID
Идентификатор кодека/Подсказка : XviD
Продолжительность : 1 ч. 34 м.
Битрейт : 1614 Кбит/сек
Ширина : 720 пикселей
Высота : 400 пикселей
Соотношение сторон : 16:9
Частота кадров : 23,976 кадра/сек
Цветовое пространство : YUV
Субдискретизация насыщенности : 4:2:0
Битовая глубина : 8 бит
Тип развёртки : Прогрессивная
Метод сжатия : С потерями
Бит/(Пиксели*Кадры) : 0.234
Размер потока : 1,07 Гбайт (78%)
Библиотека кодирования : XviD 1.2.1 (UTC 2008-12-04)
Аудио
Идентификатор : 1
Формат : AC-3
Формат/Информация : Audio Coding 3
Расширение режима : CM (complete main)
Идентификатор кодека : 2000
Продолжительность : 1 ч. 34 м.
Вид битрейта : Постоянный
Битрейт : 448 Кбит/сек
Каналы : 6 каналов
Расположение каналов : Front: L C R, Side: L R, LFE
Частота : 48,0 КГц
Битовая глубина : 16 бит
Метод сжатия : С потерями
Размер потока : 303 Мбайт (22%)
Выравнивание : Соединение по промежуткам
Продолжительность промежутка : 42 мс. (1,00 видеокадр)
Время предзагрузки промежутка : 512 мс.
-



--Пила III (Расширенная версия) / Saw III (Unrated Director's Cut)
Год выпуска: 2006
Страна: США
Жанр: Ужасы, триллер, криминал, детектив
Продолжительность: 01:53:44
Перевод: Профессиональный (полное дублирование)
Режиссер: Джеймс Ван/James Wan
В ролях: Тобин Белл, Шоуни Смит, Энгус МакФадьен, Бахар Сумех, Дина Мейер, Бэрри Флэтмэн, Лирик Бент, Дж. ЛаРоуз, Дебра МакКейб, Костас Мэндилор
Описание: Изобретатель зловещих игр остается безнаказанным и в итоге бесследно исчезает вместе со своей сообщницей Амандой. В то время, как детективы тщетно пытаются выйти на его след, доктор Линн Денлон становится очередной жертвой этого маньяка.
Однажды ночью Линн похищают и привозят в заброшенный склад, где она встречается с самим злодеем, находящимся на смертном одре. Ей приказывают сохранять жизнь этому безумцу, пока Джефф, еще одна из его жертв, не доведет до конца начатую с ним «игру»…
Качество: BDRip
Формат: AVI
Видео кодек: XviD
Аудио кодек: AC3
Видео: 720x400 (1.80:1), 23.976 fps, XviD build 50 ~1263 kbps avg, 0.18 bit/pixel
Аудио: 48 kHz, AC3 Dolby Digital, 3/2 (L,C,R,l,r) + LFE ch, ~448 kbps-
Видео
Идентификатор : 0
Формат : MPEG-4 Visual
Профиль формата : Advanced [email protected]
Параметр BVOP формата : 1
Параметр QPel формата : Нет
Параметр GMC формата : Без точки перехода
Параметр матрицы формата : Default (MPEG)
Идентификатор кодека : XVID
Идентификатор кодека/Подсказка : XviD
Продолжительность : 1 ч. 53 м.
Битрейт : 1264 Кбит/сек
Ширина : 720 пикселей
Высота : 400 пикселей
Соотношение сторон : 16:9
Частота кадров : 23,976 кадра/сек
Цветовое пространство : YUV
Субдискретизация насыщенности : 4:2:0
Битовая глубина : 8 бит
Тип развёртки : Прогрессивная
Метод сжатия : С потерями
Бит/(Пиксели*Кадры) : 0.183
Размер потока : 1,00 Гбайт (73%)
Библиотека кодирования : XviD 1.2.1 (UTC 2008-12-04)
Аудио
Идентификатор : 1
Формат : AC-3
Формат/Информация : Audio Coding 3
Расширение режима : CM (complete main)
Идентификатор кодека : 2000
Продолжительность : 1 ч. 53 м.
Вид битрейта : Постоянный
Битрейт : 448 Кбит/сек
Каналы : 6 каналов
Расположение каналов : Front: L C R, Side: L R, LFE
Частота : 48,0 КГц
Битовая глубина : 16 бит
Метод сжатия : С потерями
Размер потока : 364 Мбайт (26%)
Выравнивание : Разделение по промежуткам
Продолжительность промежутка : 42 мс. (1,00 видеокадр)
Время предзагрузки промежутка : 500 мс.
-



--Пила IV (Расширенная версия) / Saw IV (Unrated Director's Cut)
Год выпуска: 2007
Страна: США, Канада
Жанр: Ужасы, триллер, криминал, детектив
Продолжительность: 01:35:31
Перевод: Профессиональный (полное дублирование)
Режиссер: Даррен Линн Боусман/Darren Lynn Bousman
В ролях: Тобин Белл, Костас Мэндилор, Скотт Паттерсон, Бетси Расселл, Лирик Бент, Афена Карканис, Джастин Луис, Саймон Рейнольдс, Донни Уолберг, Энгус МакФадьен
Описание: Получив известие об убийстве детектива Кэрри, два опытных сотрудника ФБР, агент Стрэм и агент Перез, прибывают в полицейский участок, чтобы помочь старому детективу Хоффману проанализировать последнюю ужасную игру Пилы и соединить все части головоломки.
Однако, когда капитан Ригг, последний полицейский, нетронутый Пилой, оказывается похищен и вовлечен в чудовищную игру маньяка, у офицера остается лишь девяносто минут, чтобы обнаружить ряд взаимосвязанных ловушек… или оказаться перед лицом их беспощадных последствий.
В то время, как Ригга по всему городу преследуют следы трупов, детектив Хоффман и ФБР обнаруживают глубоко спрятанные ключи к разгадке, которые приводят их назад к бывшей жене Пилы — Джил.
Качество: BDRip
Формат: AVI
Видео кодек: XviD
Аудио кодек: AC3
Видео: 720x400 (1.80:1), 23.976 fps, XviD build 50 ~1632 kbps avg, 0.24 bit/pixel
Аудио: 48 kHz, AC3 Dolby Digital, 3/2 (L,C,R,l,r) + LFE ch, ~448 kbps-
Видео
Идентификатор : 0
Формат : MPEG-4 Visual
Профиль формата : Advanced [email protected]
Параметр BVOP формата : 1
Параметр QPel формата : Нет
Параметр GMC формата : Без точки перехода
Параметр матрицы формата : Default (MPEG)
Идентификатор кодека : XVID
Идентификатор кодека/Подсказка : XviD
Продолжительность : 1 ч. 33 м.
Битрейт : 1633 Кбит/сек
Ширина : 720 пикселей
Высота : 400 пикселей
Соотношение сторон : 16:9
Частота кадров : 23,976 кадра/сек
Цветовое пространство : YUV
Субдискретизация насыщенности : 4:2:0
Битовая глубина : 8 бит
Тип развёртки : Прогрессивная
Метод сжатия : С потерями
Бит/(Пиксели*Кадры) : 0.236
Размер потока : 1,07 Гбайт (78%)
Библиотека кодирования : XviD 1.2.1 (UTC 2008-12-04)
Аудио
Идентификатор : 1
Формат : AC-3
Формат/Информация : Audio Coding 3
Расширение режима : CM (complete main)
Идентификатор кодека : 2000
Продолжительность : 1 ч. 33 м.
Вид битрейта : Постоянный
Битрейт : 448 Кбит/сек
Каналы : 6 каналов
Расположение каналов : Front: L C R, Side: L R, LFE
Частота : 48,0 КГц
Битовая глубина : 16 бит
Метод сжатия : С потерями
Размер потока : 300 Мбайт (21%)
Выравнивание : Разделение по промежуткам
Продолжительность промежутка : 42 мс. (1,00 видеокадр)
Время предзагрузки промежутка : 500 мс.
-



--Пила V (Расширенная версия) / Saw V (Unrated Director's Cut)
Год выпуска: 2008
Страна: США, Канада
Жанр: Ужасы, триллер, криминал, детектив
Продолжительность: 01:35:03
Перевод: Профессиональный (полное дублирование)
Режиссер: Дэвид Хэкл/David Hackl
В ролях: Тобин Белл, Костас Мэндилор, Скотт Паттерсон, Бетси Расселл, Джули Бенц, Миган Гуд, Марк Ролстон, Карло Рота, Грег Брайк, Лаура Гордон
Описание: Детектив Хоффман — последний живой человек, продолжающий кровавое дело Конструктора. Но когда тайна оказывается перед угрозой разоблачения, Хоффману приходится выйти на новую охоту, чтобы устранить все ведущие к нему ниточки.
Качество: BDRip
Формат: AVI
Видео кодек: XviD
Аудио кодек: AC3
Видео: 720x400 (1.80:1), 23.976 fps, XviD build 50 ~1600 kbps avg, 0.23 bit/pixel
Аудио: 48 kHz, AC3 Dolby Digital, 3/2 (L,C,R,l,r) + LFE ch, ~448 kbps-
идео
Идентификатор : 0
Формат : MPEG-4 Visual
Профиль формата : Advanced [email protected]
Параметр BVOP формата : 1
Параметр QPel формата : Нет
Параметр GMC формата : Без точки перехода
Параметр матрицы формата : Default (MPEG)
Идентификатор кодека : XVID
Идентификатор кодека/Подсказка : XviD
Продолжительность : 1 ч. 35 м.
Битрейт : 1601 Кбит/сек
Ширина : 720 пикселей
Высота : 400 пикселей
Соотношение сторон : 16:9
Частота кадров : 23,976 кадра/сек
Цветовое пространство : YUV
Субдискретизация насыщенности : 4:2:0
Битовая глубина : 8 бит
Тип развёртки : Прогрессивная
Метод сжатия : С потерями
Бит/(Пиксели*Кадры) : 0.232
Размер потока : 1,06 Гбайт (78%)
Библиотека кодирования : XviD 1.2.1 (UTC 2008-12-04)
Аудио
Идентификатор : 1
Формат : AC-3
Формат/Информация : Audio Coding 3
Расширение режима : CM (complete main)
Идентификатор кодека : 2000
Продолжительность : 1 ч. 35 м.
Вид битрейта : Постоянный
Битрейт : 448 Кбит/сек
Каналы : 6 каналов
Расположение каналов : Front: L C R, Side: L R, LFE
Частота : 48,0 КГц
Битовая глубина : 16 бит
Метод сжатия : С потерями
Размер потока : 305 Мбайт (22%)
Выравнивание : Разделение по промежуткам
Продолжительность промежутка : 42 мс. (1,00 видеокадр)
Время предзагрузки промежутка : 500 мс.
-



--Пила VI (Расширенная версия) / Saw VI (Unrated Director's Cut)
Год выпуска: 2009
Страна: США, Канада, Великобритания, Австралия
Жанр: Ужасы, триллер, криминал, детектив
Продолжительность: 01:31:39
Перевод: Профессиональный (полное дублирование)
Режиссер: Кевин Гротерт/Kevin Greutert
В ролях: Тобин Белл, Костас Мэндилор, Марк Ролстон, Бетси Расселл, Шоуни Смит, Питер Аутербридж, Афена Карканис, Саманта Лемоул, Танедра Ховард, Марти Моро
Описание: Специальный агент Страм мертв и нет никаких сомнений в том, что детектив Хоффман является продолжателем дела Конструктора. Но когда ФБР садится ему на след, он вынужден вновь начать Игру, наконец-то расставляющую все точки над i в грандиозном плане Конструктора.
Качество: BDRip
Формат: AVI
Видео кодек: XviD
Аудио кодек: AC3
Видео: 720x400 (1.80:1), 23.976 fps, XviD build 50 ~1676 kbps avg, 0.24 bit/pixel
Аудио: 48 kHz, AC3 Dolby Digital, 3/2 (L,C,R,l,r) + LFE ch, ~448 kbps-
Видео
Идентификатор : 0
Формат : MPEG-4 Visual
Профиль формата : Advanced [email protected]
Параметр BVOP формата : 1
Параметр QPel формата : Нет
Параметр GMC формата : Без точки перехода
Параметр матрицы формата : Default (MPEG)
Идентификатор кодека : XVID
Идентификатор кодека/Подсказка : XviD
Продолжительность : 1 ч. 31 м.
Битрейт : 1677 Кбит/сек
Ширина : 720 пикселей
Высота : 400 пикселей
Соотношение сторон : 16:9
Частота кадров : 23,976 кадра/сек
Цветовое пространство : YUV
Субдискретизация насыщенности : 4:2:0
Битовая глубина : 8 бит
Тип развёртки : Прогрессивная
Метод сжатия : С потерями
Бит/(Пиксели*Кадры) : 0.243
Размер потока : 1,07 Гбайт (79%)
Библиотека кодирования : XviD 1.2.1 (UTC 2008-12-04)
Аудио
Идентификатор : 1
Формат : AC-3
Формат/Информация : Audio Coding 3
Расширение режима : CM (complete main)
Идентификатор кодека : 2000
Продолжительность : 1 ч. 31 м.
Вид битрейта : Постоянный
Битрейт : 448 Кбит/сек
Каналы : 6 каналов
Расположение каналов : Front: L C R, Side: L R, LFE
Частота : 48,0 КГц
Битовая глубина : 16 бит
Метод сжатия : С потерями
Размер потока : 294 Мбайт (21%)
Выравнивание : Разделение по промежуткам
Продолжительность промежутка : 42 мс. (1,00 видеокадр)
Время предзагрузки промежутка : 500 мс.
-



--Пила VII (Расширенная версия) / Saw VII (Unrated Director's Cut)
Год выпуска: 2010
Страна: Канада / США, Serendipity Productions
Жанр: Ужасы, триллер, криминал, детектив
Продолжительность: 01:30:00
Перевод: Профессиональный (полное дублирование)
Режиссер: Кевин Гротерт/Kevin Greutert
В ролях: Костас Мэндилор, Шон Патрик Флэнери, Тобин Белл, Кэри Элвис, Бетси Расселл, Дин Армстронг, Чэд Донелла, Джина Холден, Честер Беннингтон, Ребекка Маршалл
Описание: Жертвы Пилы, выжившие в предыдущих испытаниях, обращаются за психологической помощью к товарищу по несчастью Бобби Дагену. Но когда его собственные темные тайны всплывают на свет, развязывается новая волна террора.
Качество: BDRip
Формат: AVI
Видео кодек: XviD
Аудио кодек: AC3
Видео: 720x400 (1.80:1), 23.976 fps, XviD build 50 ~1715 kbps avg, 0.25 bit/pixel
Аудио: 48 kHz, AC3 Dolby Digital, 3/2 (L,C,R,l,r) + LFE ch, ~448 kbps-
Видео
Идентификатор : 0
Формат : MPEG-4 Visual
Профиль формата : Advanced [email protected]
Параметр BVOP формата : 1
Параметр QPel формата : Нет
Параметр GMC формата : Без точки перехода
Параметр матрицы формата : Default (MPEG)
Идентификатор кодека : XVID
Идентификатор кодека/Подсказка : XviD
Продолжительность : 1 ч. 30 м.
Битрейт : 1716 Кбит/сек
Ширина : 720 пикселей
Высота : 400 пикселей
Соотношение сторон : 16:9
Частота кадров : 23,976 кадра/сек
Цветовое пространство : YUV
Субдискретизация насыщенности : 4:2:0
Битовая глубина : 8 бит
Тип развёртки : Прогрессивная
Метод сжатия : С потерями
Бит/(Пиксели*Кадры) : 0.248
Размер потока : 1,08 Гбайт (79%)
Библиотека кодирования : XviD 1.2.1 (UTC 2008-12-04)
Аудио
Идентификатор : 1
Формат : AC-3
Формат/Информация : Audio Coding 3
Расширение режима : CM (complete main)
Идентификатор кодека : 2000
Продолжительность : 1 ч. 30 м.
Вид битрейта : Постоянный
Битрейт : 448 Кбит/сек
Каналы : 6 каналов
Расположение каналов : Front: L C R, Side: L R, LFE
Частота : 48,0 КГц
Битовая глубина : 16 бит
Метод сжатия : С потерями
Задержка видео : 45 мс.
Размер потока : 288 Мбайт (21%)
Выравнивание : Разделение по промежуткам
Продолжительность промежутка : 42 мс. (1,00 видеокадр)
Время предзагрузки промежутка : 500 мс.
-



Download / Скачать

Хотите скачать бесплатно? Зарегистрируйтесь на сайте (ссылка на регистрацию). Pirat.ca - самый быстрый торрент трекер в рунете!

Как скачивать  ·   Что такое торрент  ·   Рейтинг и ограничения



Последний раз редактировалось: ErgoProxy (2011-11-02 02:07), всего редактировалось 2 раз(а)

Амангельды

35490

Пост 02-Ноя-2011 07:48 (спустя 6 часов)

[Q] 

ErgoProxy, респектище!!! Присоединюсь!!!

_________________

Товарищ, верь, пройдет она,
Так называемая гласность.
И вот тогда госбезопасность
Припомнит ваши имена
Раздачи от Амангельды - ТЫНЦ
[Профиль]  [ЛС] 

Wishmaster

Морской Волк

Пост 02-Ноя-2011 21:18 (спустя 13 часов)

[Q] 

Этот дерьмовый сериал еще и несколько режиссеров снимало хахаха
[Профиль]  [ЛС] 

Амангельды

35490

Пост 03-Ноя-2011 19:15 (спустя 21 час)

[Q] 

Wishmaster, дерьмовые сериалы в телевизоре показывают, чем и испортили ваш вкус...

_________________

Товарищ, верь, пройдет она,
Так называемая гласность.
И вот тогда госбезопасность
Припомнит ваши имена
Раздачи от Амангельды - ТЫНЦ
[Профиль]  [ЛС] 

ErgoProxy ®

Корсар

519

Пост 04-Ноя-2011 03:39 (спустя 8 часов)

[Q] 

Амангельды, az
[Профиль]  [ЛС] 

ErgoProxy ®

Корсар

519

Пост 06-Ноя-2011 22:27 (спустя 2 дня 18 часов)

[Q] 

торрент перезалит
[Профиль]  [ЛС] 

Пост 06-Ноя-2011 22:32 (спустя 4 минуты)

Топик был перенесен из форума Современное кино (с 2000 г.) в форум Зарубежное Кино

Skinwalker
 

i926

Пост 07-Ноя-2011 23:50 (спустя 1 день 1 час)

[Q] 

Амангельды, American Horror Story на несколько порядков лучше. По телевизору показывают. Мне жаль ваш российский ящик.
[Профиль]  [ЛС] 

Амангельды

35490

Пост 09-Ноя-2011 20:41 (спустя 1 день 20 часов)

[Q] 

i926, не надо смотреть ящик вообще...
Российский или израильский - не суть важно...
И не надо фастаться своими познаниями...

_________________

Товарищ, верь, пройдет она,
Так называемая гласность.
И вот тогда госбезопасность
Припомнит ваши имена
Раздачи от Амангельды - ТЫНЦ
[Профиль]  [ЛС] 

Animasola777

Корсар

829

Пост 29-Ноя-2011 17:55 (спустя 19 дней)

[Q] 

Wishmaster, i926, фильмы в своем роде уникальные и со своей философией. Это и не сериал, между прочим. Амангельды, да, ящик, действительно смотреть не надо, от этого тупеют. Раздающему-респектище!!!
[Профиль]  [ЛС] 

FezoOne

Шкипер

Пост 26-Фев-2012 15:38 (спустя 2 месяца 26 дней)

[Q] 

ой спасибо !!!! вот только СКОООООООРОСТЬ !!!!! где ??????????!!!!!!!!!

_________________
Уж лучше голодать, чем что попало есть и лучше быть одним, чем вместе с кем попало. Омар Хайям.
[Профиль]  [ЛС] 

FezoOne

Шкипер

Пост 28-Фев-2012 19:35 (спустя 2 дня 3 часа)

[Q] 

спасибо огромное !

_________________
Уж лучше голодать, чем что попало есть и лучше быть одним, чем вместе с кем попало. Омар Хайям.
[Профиль]  [ЛС] 

ErgoProxy ®

Корсар

519

Пост 02-Мар-2012 00:59 (спустя 2 дня 5 часов)

[Q] 

FezoOne, смотри на здоровье!!)
[Профиль]  [ЛС] 

denistyz

Шкипер

Пост 23-Апр-2012 21:59 (спустя 1 месяц 21 день)

[Q] 

Джеймс Вон извращенец))))))такую историю начал))))
[Профиль]  [ЛС] 

Амангельды

35490

Пост 08-Май-2012 19:28 (спустя 14 дней)

[Q] 

denistyz, да, изврат, но, таки, почему бы и нет? В некоторых местах можно было бы и поддать газу... Гы...
Не в смысле, взять и обосраться, а сделать жестче сюжет...

_________________

Товарищ, верь, пройдет она,
Так называемая гласность.
И вот тогда госбезопасность
Припомнит ваши имена
Раздачи от Амангельды - ТЫНЦ
[Профиль]  [ЛС] 

Jigsaw

Пост 12-Май-2012 23:30 (спустя 4 дня)

[Q] 

спс давно смотрю))))
 

Jigsaw

Пост 29-Июн-2012 17:29 (спустя 1 месяц 16 дней)

[Q] 

самый наилучший сериал который только есть в мире
 

XAPOH

Гроза морей

Пост 02-Июл-2012 21:35 (спустя 3 дня)

[Q] 

Надо посмотреть что ли )) Бочонок в комплекте.

_________________

<<<Dolus an virtus quis in hoste requirat?>>>
Intel Core i7 2600, 16Gb Ram, GTX 670, SSD.
PS4.
[Профиль]  [ЛС] 

bullmatwey

Штурман

Пост 27-Июл-2012 14:24 (спустя 24 дня)

[Q] 

очень круто
[Профиль]  [ЛС] 

_GhostRider_

Штурман

Пост 27-Авг-2012 14:01 (спустя 30 дней)

[Q] 

Спасибо!Отличный фильм

_________________
[Профиль]  [ЛС] 

_GhostRider_

Штурман

Пост 28-Авг-2012 15:19 (спустя 1 день 1 час)

[Q] 

Раздайте кто нибудь!

_________________
[Профиль]  [ЛС] 

vasi

Корсар

Пост 30-Сен-2012 11:50 (спустя 1 месяц 1 день)

[Q] 

[Профиль]  [ЛС] 

eddyApsua

Штурман

Пост 05-Янв-2013 19:48 (спустя 3 месяца 5 дней)

[Q] 

[Профиль]  [ЛС] 

SuperBeTeR

Морской Волк

Пост 27-Июн-2013 09:50 (спустя 5 месяцев 21 день)

[Q] 

Мама мия, слово то какое - гепталогия. Фильм (как и слово)
[Профиль]  [ЛС] 

Руфатик

Штурман

Пост 14-Июн-2014 11:41 (спустя 11 месяцев 17 дней)

[Q] 

Амангельды, бро встань на раздачу
Добавлено спустя 4 минуты 30 секунд:
Вам жалко чтоли. раздайте кто-нибудь
[Профиль]  [ЛС] 

kabam1

Штурман

Пост 12-Янв-2015 20:06 (спустя 6 месяцев 28 дней)

[Q] 

Эй, вернитесь на раздачу... Раздавать будем или как? люди добрые,встаньте на раздачу
[Профиль]  [ЛС] 

xzxscorpxzx

Флибустьер

Пост 14-Сен-2015 05:53 (спустя 8 месяцев 1 день)

[Q] 

ужас ужас ужас) На любителя
[Профиль]  [ЛС] 
Показать сообщения:    
Ответить на тему

Текущее время: Сегодня 22:34

Часовой пояс: GMT + 4



Вы не можете начинать темы
Вы не можете отвечать на сообщения
Вы не можете редактировать свои сообщения
Вы не можете удалять свои сообщения
Вы не можете голосовать в опросах
Вы не можете прикреплять файлы к сообщениям
Вы не можете скачивать файлы

▼ Вниз