ML
     
  Уважаемый Гость!
Вы можете поддержать проект и зарегистрироваться у наших партнеров - онлайн-стратегия MyLands. При регистрации в игре Вы получите код, который сможете активировать после регистрации на pirat.ca и получить 1000 дублонов.

Ваш код:
193c38d0130f05c24de871678ea3ac181461757d
 
     

Хроники Риддика (трилогия) / The Chronicles of Riddick (trilogy) [2000, 2004,2004 гг, фантастика, боевик, приключения BDRip]

Ответить на тему
 
Автор
Сообщение

Пост 05-Ноя-2011 02:43

[Q] 

racom

Хроники Риддика (трилогия) / The Chronicles of Riddick (trilogy) [2000, 2004,2004 гг, фантастика, боевик, приключения BDRip]
- -Черная дыра [Режиссерская версия] / Pitch Black [Director's Cut] (Дэвид Туи/David Twohy)- Год выпуска: 2000
Производство: США, Австралия.
Жанр: Ужасы, Фантастика, Боевик, Триллер, Приключения.
Продолжительность: 01:48:21
Перевод: Профессиональный (полное дублирование)
Режиссер: Дэвид Туи/David Twohy
В ролях: Вин Дизель, Рада Митчел, Коул Хаузер, Кит Дэвид, Льюис Фитц-Геральд, Клаудия Блэк, Рйана Гриффит, Джон Мур, Саймон Бурк, Лес Чэнтери, Сэм Сари, Фирэсс Дирани, Рик Андерсон, Вик Уилсон, Анджела Макин, Питер Чианг, Кен Твохи.
Описание: Его зовут Риддик, и он не знает, что такое страх. Он тысячу раз смотрел смерти в глаза и спокойно выдерживал ее ледяной взгляд. Но на этот раз судьба убрала привычную улыбку со своего лица: ловец беглых преступников поймал его и заковал в цепи. Теперь Риддик путешествовал последний раз, но уже под стражей, в чреве огромного межгалактического транспорта. Но уголовник еще не знал тогда, что космический корабль совершит аварийную посадку на неизвестной планете, где с наступлением темноты приходит царство смерти. И что там, на чужой земле, во мраке ночи, герой вступит в самый ужасный бой в своей жизни...
Источник/Качество: BDRip 720p
Формат: MKV
Видео кодек: V_MPEG4/ISO/AVC
Аудио кодек: DTS, AAC LH
Видео: 1280х544 (2.35:1), 23.976 fps, x264 ~4219 Kbps, ~0.25 bit/pixel
Аудио 1: DTS, 3/2 (L,C,R,l,r) + LFE ch,755 Kbps, 48 KHz (профессиональный многоголосный)
Аудио 2: AAC, 3/2 (L,C,R,l,r) + LFE ch,779 Kbps, 48 KHz (английский)
Video
ID : 1
Format : AVC
Format/Info : Advanced Video Codec
Format profile : [email protected]
Format settings, CABAC : Yes
Format settings, ReFrames : 8 frames
Codec ID : V_MPEG4/ISO/AVC
Duration : 1h 48mn
Nominal bit rate : 4 219 Kbps
Width : 1 280 pixels
Height : 544 pixels
Display aspect ratio : 2.35:1
Frame rate : 23.976 fps
Color space : YUV
Chroma subsampling : 4:2:0
Bit depth : 8 bits
Scan type : Progressive
Bits/(Pixel*Frame) : 0.253
Title : x264 [email protected], 4219 Kbps (Softcode Video)
Writing library : x264 core 67 r1145M d2e1e1c
Encoding settings : cabac=1 / ref=8 / deblock=1:-1:-1 / analyse=0x3:0x113 / me=umh / subme=9 / psy_rd=1.0:0.3 / mixed_ref=1 / me_range=24 / chroma_me=1 / trellis=2 / 8x8dct=1 / cqm=0 / deadzone=21,11 / chroma_qp_offset=-4 / threads=3 / nr=0 / decimate=0 / mbaff=0 / bframes=8 / b_pyramid=1 / b_adapt=2 / b_bias=0 / direct=3 / wpredb=1 / keyint=250 / keyint_min=25 / scenecut=40 / rc=2pass / bitrate=4219 / ratetol=1.0 / qcomp=0.70 / qpmin=10 / qpmax=51 / qpstep=4 / cplxblur=20.0 / qblur=0.5 / ip_ratio=1.40 / pb_ratio=1.30 / aq=1:0.80
Audio #1
ID : 2
Format : DTS
Format/Info : Digital Theater Systems
Codec ID : A_DTS
Duration : 1h 48mn
Bit rate mode : Constant
Bit rate : 755 Kbps
Channel(s) : 6 channels
Channel positions : Front: L C R, Side: L R, LFE
Sampling rate : 48.0 KHz
Bit depth : 24 bits
Compression mode : Lossy
Stream size : 585 MiB (13%)
Title : Дубляж, DTS 5.1ch, 754 Kbps
Language : Russian
Audio #2
ID : 3
Format : AAC
Format/Info : Advanced Audio Codec
Format profile : LC
Codec ID : A_AAC
Duration : 1h 48mn
Channel(s) : 6 channels
Channel positions : Front: L C R, Side: L R, LFE
Sampling rate : 48.0 KHz
Compression mode : Lossy
Title : AAC LC 5.1ch, 779 Kbps
Language : English



-Темная Ярость / Dark Fury (Питер Чанг/Peter Chung)- Год выпуска: 2004
Производство: США
Жанр: фантастика, приключения, боевик
Продолжительность: 00:33:31
Перевод: Профессиональный (двухголосный)
Режиссер: Питер Чанг/Peter Chung
Описание: Покинув темную планету, корабль, в котором находятся Риддик, девочка-подросток и имам, захвачен галактическими охотниками на преступников, которых они коллекционируют. И чтобы вырваться на волю, Риддику предстоит вступить в смертельную схватку против наёмников и ужасных монстров в многочисленных лабиринтах огромного космического корабля...
Дополнительная информация: Действие мультфильма происходит между событиями фильмов «Чёрная дыра» и «Хроники Риддика».
Источник/Качество: DVDRip-AVC
Формат: MKV
Видео кодек: H.264
Аудио кодек: AC3 Dolby Digital
Видео: 720x414=>768x414 (1,855), 25 fps, x264, 2100 kbps
Аудио 1: 3/2 (L,C,R,l,r) + LFE ch,384 kbps, 48 KHz (профессиональный двухголосный)
Аудио 2: 3/2 (L,C,R,l,r) + LFE ch,384 kbps, 48 KHz (английский, оригинальная озвучка)
Video
ID : 1
Format : AVC
Format/Info : Advanced Video Codec
Format profile : [email protected]
Format settings, CABAC : Yes
Format settings, ReFrames : 11 frames
Codec ID : V_MPEG4/ISO/AVC
Duration : 33mn 31s
Bit rate : 2 100 Kbps
Width : 720 pixels
Height : 414 pixels
Display aspect ratio : 1.855
Original display aspect ratio : 16:9
Frame rate : 25.000 fps
Color space : YUV
Chroma subsampling : 4:2:0
Bit depth : 8 bits
Scan type : Progressive
Bits/(Pixel*Frame) : 0.282
Stream size : 490 MiB (71%)
Title : Хроники Риддика: Темная ярость / Chronicles of Riddick: Dark Fury (2004) [Geralt iz Rivii]
Writing library : x264 core 89 r1471kMod 1144615
Encoding settings : cabac=1 / ref=11 / deblock=1:-1:0 / analyse=0x3:0x133 / me=umh / subme=9 / psy=1 / psy_rd=0.65:0.00 / mixed_ref=1 / me_range=24 / chroma_me=1 / trellis=2 / 8x8dct=1 / cqm=0 / deadzone=21,11 / fast_pskip=0 / chroma_qp_offset=-2 / threads=3 / sliced_threads=0 / nr=0 / decimate=1 / interlaced=0 / constrained_intra=0 / bframes=10 / b_pyramid=2 / b_adapt=2 / b_bias=0 / direct=3 / wpredb=1 / wpredp=2 / keyint=250 / keyint_min=25 / scenecut=40 / intra_refresh=0 / rc=2pass / mbtree=0 / bitrate=2100 / ratetol=1.0 / qcomp=0.60 / qpmin=10 / qpmax=51 / qpstep=4 / cplxblur=20.0 / qblur=0.5 / ip_ratio=1.40 / pb_ratio=1.30 / aq=2:0.75 / pulldown=0
Language : English
Matrix coefficients : BT.470-6 System B, BT.470-6 System G, BT.601-6 625, BT.1358 625, BT.1700 625 PAL, BT.1700 625 SECAM, IEC 61966-2-4 601
Audio #1
ID : 2
Format : AC-3
Format/Info : Audio Coding 3
Mode extension : CM (complete main)
Codec ID : A_AC3
Duration : 33mn 31s
Bit rate mode : Constant
Bit rate : 384 Kbps
Channel(s) : 6 channels
Channel positions : Front: L C R, Side: L R, LFE
Sampling rate : 48.0 KHz
Bit depth : 16 bits
Compression mode : Lossy
Stream size : 92.1 MiB (13%)
Language : Russian
Audio #2
ID : 3
Format : AC-3
Format/Info : Audio Coding 3
Mode extension : CM (complete main)
Codec ID : A_AC3
Duration : 33mn 31s
Bit rate mode : Constant
Bit rate : 384 Kbps
Channel(s) : 6 channels
Channel positions : Front: L C R, Side: L R, LFE
Sampling rate : 48.0 KHz
Bit depth : 16 bits
Compression mode : Lossy
Stream size : 92.1 MiB (13%)
Language : English



-Хроники Риддика [Режиссерская версия] / The Chronicles of Riddick [Director's Cut] (Дэвид Туи/David Twohy)- Год выпуска: 2004
Производство: США
Жанр: Фантастика, Боевик, Триллер, Приключения.
Продолжительность: 02:14:06
Перевод: Профессиональный (Дублированный +многоголосые вставки на режиссёрские места)
Режиссер: Дэвид Туи/David Twohy
В ролях: Вин Дизель, Колм Фиори, Тэнди Ньютон, Джуди Денч, Карл Урбан, Алекса Давалос, Лайнес Роуч, Йорик ван Вагенинген, Ник Чинланд, Кейт Дэвид, Роджер Р. Кросс, Терри Чен, Кристина Кокс, Шоун Реис, Ти Олссон, Питер Уильямс, Дарси Лори, Джон Манн
Описание: Последние пять лет Риддик провел в бегах среди забытых миров на задворках галактики, прячась от наемников, назначивших цену за его голову. Теперь беглец оказался на планете Гелион, где живет прогрессивное многонациональное общество, завоеванное лордом Маршалом, фанатиком, решившим поработить человечество армадой своих воинов, некромонгеров.
Совершив побег из подземной тюрьмы, где температура колебалась от арктических ночей до вулканических дней, Риддик встречает Кайру, последнюю оставшуюся в живых женщину из раннего периода его жизни. Его попытки освободить себя и Кайру приводят их на борт главного корабля некромонгеров, где ему предстоит столкнуться с лордом Маршалом в апокалиптической битве не на жизнь, а на смерть.
Источник/Качество: BDRip
Формат: MKV
Видео кодек: AVC ([email protected])
Аудио кодек: AC3 Dolby Digital
Видео: 4218 kbps avg, 1280*528 (2,40:1), 23.976 fps
Аудио 1: 3/2 (L,C,R,l,r) + LFE ch,448 kbps, 48 KHz (профессиональный многоголосный)
Аудио 2: 3/2 (L,C,R,l,r) + LFE ch,448 kbps, 48 KHz (гоблин)
Отдельно:
Аудио 3: 3/2 (L,C,R,l,r) + LFE ch, 320 kbps, 48 KHz (английский оригинал)
Аудио 4: 3/2 (L,C,R,l,r) + LFE ch, 448 kbps, 48 KHz (многоголосый CP Digital)
Аудио 5: 3/2 (L,C,R,l,r) + LFE ch, 448 kbps, 48 KHz (Tycoon)
Субтитры:
Субтитры:Русские (Tycoon), Русские (CP Digital) , English ( VobSub ) ( отдельно)
Video
ID : 1
Format : AVC
Format/Info : Advanced Video Codec
Format profile : [email protected]
Format settings, CABAC : Yes
Format settings, ReFrames : 10 frames
Codec ID : V_MPEG4/ISO/AVC
Duration : 2h 14mn
Bit rate : 4 218 Kbps
Width : 1 280 pixels
Height : 528 pixels
Display aspect ratio : 2.40:1
Frame rate : 23.976 fps
Color space : YUV
Chroma subsampling : 4:2:0
Bit depth : 8 bits
Scan type : Progressive
Bits/(Pixel*Frame) : 0.260
Stream size : 3.85 GiB (80%)
Writing library : x264 core 116 r2074 2641b9e
Encoding settings : cabac=1 / ref=10 / deblock=1:-2:-2 / analyse=0x3:0x113 / me=umh / subme=9 / psy=1 / psy_rd=1.00:0.15 / mixed_ref=1 / me_range=32 / chroma_me=1 / trellis=2 / 8x8dct=1 / cqm=0 / deadzone=21,11 / fast_pskip=0 / chroma_qp_offset=-3 / threads=6 / sliced_threads=0 / nr=0 / decimate=1 / interlaced=0 / bluray_compat=0 / constrained_intra=0 / bframes=8 / b_pyramid=2 / b_adapt=2 / b_bias=0 / direct=3 / weightb=1 / open_gop=0 / weightp=2 / keyint=250 / keyint_min=24 / scenecut=40 / intra_refresh=0 / rc_lookahead=60 / rc=2pass / mbtree=1 / bitrate=4218 / ratetol=1.0 / qcomp=0.80 / qpmin=0 / qpmax=69 / qpstep=4 / cplxblur=20.0 / qblur=0.5 / ip_ratio=1.40 / aq=1:1.00
Language : English
Audio #1
ID : 2
Format : AC-3
Format/Info : Audio Coding 3
Mode extension : CM (complete main)
Codec ID : A_AC3
Duration : 2h 14mn
Bit rate mode : Constant
Bit rate : 448 Kbps
Channel(s) : 6 channels
Channel positions : Front: L C R, Side: L R, LFE
Sampling rate : 48.0 KHz
Bit depth : 16 bits
Compression mode : Lossy
Stream size : 430 MiB (9%)
Language : Russian
Audio #2
ID : 3
Format : AC-3
Format/Info : Audio Coding 3
Mode extension : CM (complete main)
Codec ID : A_AC3
Duration : 2h 14mn
Bit rate mode : Constant
Bit rate : 448 Kbps
Channel(s) : 6 channels
Channel positions : Front: L C R, Side: L R, LFE
Sampling rate : 48.0 KHz
Bit depth : 16 bits
Compression mode : Lossy
Delay relative to video : 13ms
Stream size : 430 MiB (9%)
Language : Russian
Audio #3
Format : AC-3
Format/Info : Audio Coding 3
Mode extension : CM (complete main)
Duration : 2h 14mn
Bit rate mode : Constant
Bit rate : 320 Kbps
Channel(s) : 6 channels
Channel positions : Front: L C R, Side: L R, LFE
Sampling rate : 48.0 KHz
Bit depth : 16 bits
Compression mode : Lossy
Stream size : 307 MiB (100%)
Audio #4
Format : AC-3
Format/Info : Audio Coding 3
Mode extension : CM (complete main)
Duration : 2h 14mn
Bit rate mode : Constant
Bit rate : 448 Kbps
Channel(s) : 6 channels
Channel positions : Front: L C R, Side: L R, LFE
Sampling rate : 48.0 KHz
Bit depth : 16 bits
Compression mode : Lossy
Stream size : 430 MiB (100%)
Audio #5
Format : AC-3
Format/Info : Audio Coding 3
Mode extension : CM (complete main)
Duration : 2h 14mn
Bit rate mode : Constant
Bit rate : 448 Kbps
Channel(s) : 6 channels
Channel positions : Front: L C R, Side: L R, LFE
Sampling rate : 48.0 KHz
Bit depth : 16 bits
Compression mode : Lossy
Stream size : 430 MiB (100%)


Download / Скачать

Хотите скачать бесплатно? Зарегистрируйтесь на сайте (ссылка на регистрацию). Pirat.ca - самый быстрый торрент трекер в рунете!

Как скачивать  ·   Что такое торрент  ·   Рейтинг и ограничения



Последний раз редактировалось: racom (2011-11-13 12:13), всего редактировалось 18 раз(а)

Пост 05-Ноя-2011 14:49 (спустя 12 часов)

Топик был перенесен из форума Художественные фильмы (Зарубежное кино) в форум Зарубежное Кино

Skinwalker
 

racom ®

2341

Пост 09-Ноя-2011 20:59 (спустя 4 дня)

[Q] 

почему у вас торренты слетают? проверяйте заного плиз

_________________
[Профиль]  [ЛС] 

racom ®

2341

Пост 10-Ноя-2011 22:08 (спустя 1 день 1 час)

[Q] 

Торрент перебил, перезалил, обновите трекер те кто скачивал
ПЫСЫ одобрите снова)

_________________
[Профиль]  [ЛС] 

serg21131

Шкипер

Пост 12-Ноя-2011 06:35 (спустя 1 день 8 часов)

[Q] 

спасибо.
[Профиль]  [ЛС] 

aiden57

Гроза морей

3259

Пост 12-Ноя-2011 09:55 (спустя 3 часа)

[Q] 

Спасибо.

_________________

Мои раздачи
[Профиль]  [ЛС] 

ппавел

Шкипер

Пост 25-Ноя-2011 18:41 (спустя 13 дней)

[Q] 

спасибо
[Профиль]  [ЛС] 

Suncat

Корсар

Пост 22-Янв-2012 18:01 (спустя 1 месяц 26 дней)

[Q] 

Аж подскочил, когда увидел "Трилогия" . Немного расстроился, что мультик. Хоть толковый мультик? Почему-то никто не отписался..
[Профиль]  [ЛС] 

racom ®

2341

Пост 22-Янв-2012 22:34 (спустя 4 часа)

[Q] 

Suncat, мультик толковый, посмотри

_________________
[Профиль]  [ЛС] 

VaNo192

Корсар

Пост 02-Фев-2012 05:42 (спустя 10 дней)

[Q] 

[Профиль]  [ЛС] 

KIRST

Корсар

Пост 02-Фев-2012 19:29 (спустя 13 часов)

[Q] 

Спасибо.
[Профиль]  [ЛС] 

vovav-1924

Флибустьер

Пост 05-Фев-2012 21:07 (спустя 3 дня)

[Q] 

[Профиль]  [ЛС] 

Smail

Корсар

5969

Пост 18-Апр-2012 12:18 (спустя 2 месяца 12 дней)

[Q] 


_________________
[Профиль]  [ЛС] 

Quasar76

Пост 23-Апр-2012 19:44 (спустя 5 дней)

[Q] 

[Профиль]  [ЛС] 

Quasar76

Пост 29-Апр-2012 18:27 (спустя 5 дней)

[Q] 

Чё-за фильм тут вместо "Тёмной ярости"?
[Профиль]  [ЛС] 

kolobok007

Лоцман

Пост 04-Мар-2013 21:23 (спустя 10 месяцев 5 дней)

[Q] 

[Профиль]  [ЛС] 

vodoleii

Шкипер

Пост 25-Май-2013 19:42 (спустя 2 месяца 20 дней)

[Q] 

[Профиль]  [ЛС] 

SuperBeTeR

Морской Волк

Пост 30-Июн-2013 13:19 (спустя 1 месяц 4 дня)

[Q] 

76204Аж подскочил, когда увидел "Трилогия" . Немного расстроился, что мультик. Хоть толковый мультик? Почему-то никто не отписался..
Мультик...Мдаа, еще и аниме наверное.
[Профиль]  [ЛС] 

urlas66

Морской Волк

Пост 01-Окт-2013 13:15 (спустя 3 месяца)

[Q] 

посмотрим Спасибо!!!
[Профиль]  [ЛС] 

DarkBlueBeard

Шкипер

Пост 25-Янв-2014 20:38 (спустя 3 месяца 24 дня)

[Q] 

Странно стали сейчас писать: "Дублированный" и он же: "Профессиональный многоголосный". Раньше был дублированный(оригинальные голоса не слышны) и с синхронным переводом (типа - многоголосый, родной язык слышен).

_________________
На хитрый болт есть гайка с лабиринтом.
[Профиль]  [ЛС] 

Antarres

Легенда

Пост 06-Ноя-2014 11:23 (спустя 9 месяцев 11 дней)

[Q] 

Thanks!

_________________
[Профиль]  [ЛС] 

xzxscorpxzx

Флибустьер

Пост 14-Сен-2015 06:31 (спустя 10 месяцев 7 дней)

[Q] 

....на любителя На любителя
[Профиль]  [ЛС] 

JonSneG

Пост 25-Окт-2016 14:20 (спустя 1 год 1 месяц)

[Q] 

Возьмем посмотреть, заного.

_________________
[Профиль]  [ЛС] 
Показать сообщения:    
Ответить на тему

Текущее время: Сегодня 18:05

Часовой пояс: GMT + 4



Вы не можете начинать темы
Вы не можете отвечать на сообщения
Вы не можете редактировать свои сообщения
Вы не можете удалять свои сообщения
Вы не можете голосовать в опросах
Вы не можете прикреплять файлы к сообщениям
Вы не можете скачивать файлы

▼ Вниз